<?xml version="1.0" standalone="no"?>
<!DOCTYPE svg PUBLIC "-//W3C//DTD SVG 1.1//EN" "http://www.w3.org/Graphics/SVG/1.1/DTD/svg11.dtd" >
<svg xmlns="http://www.w3.org/2000/svg" xmlns:xlink="http://www.w3.org/1999/xlink" version="1.1">
<metadata>
Created by FontForge 20161013 at Fri Feb 21 03:08:20 2014
 By ,,,
2005 Albert-Jan Pool published by FSI FontShop International GmbH
</metadata>
<defs>
<font id="DINPro-CondensedBold" horiz-adv-x="396" >
  <font-face 
    font-family="DIN Pro Cond Bold"
    font-weight="700"
    font-stretch="condensed"
    units-per-em="1000"
    panose-1="2 11 8 6 2 1 1 1 1 2"
    ascent="800"
    descent="-200"
    x-height="527"
    cap-height="712"
    bbox="-70 -226 1112 1111"
    underline-thickness="77"
    underline-position="-266"
    unicode-range="U+000D-FEFF"
  />
<missing-glyph horiz-adv-x="417" 
d="M52 0v712h314v-712h-314zM129 77h159v558h-159v-558z" />
    <glyph glyph-name=".notdef" horiz-adv-x="417" 
d="M52 0v712h314v-712h-314zM129 77h159v558h-159v-558z" />
    <glyph glyph-name=".null" horiz-adv-x="0" 
 />
    <glyph glyph-name=".null" horiz-adv-x="0" 
 />
    <glyph glyph-name="nonmarkingreturn" horiz-adv-x="333" 
 />
    <glyph glyph-name="CR" unicode="&#xd;" horiz-adv-x="179" 
 />
    <glyph glyph-name="space" unicode=" " horiz-adv-x="179" 
 />
    <glyph glyph-name="exclam" unicode="!" horiz-adv-x="257" 
d="M193 200h-106v512h106v-512zM202 0h-124v123h124v-123z" />
    <glyph glyph-name="quotedbl" unicode="&#x22;" horiz-adv-x="437" 
d="M174 511h-102v201h102v-201zM364 511h-101v201h101v-201z" />
    <glyph glyph-name="numbersign" unicode="#" horiz-adv-x="608" 
d="M561 428h-84l-18 -127h71v-100h-87l-29 -201h-111l29 201h-107l-29 -201h-110l29 201h-68v100h84l18 127h-71v101h87l26 183h111l-27 -183h107l27 183h110l-26 -183h68v-101zM367 428h-107l-19 -127h107z" />
    <glyph glyph-name="dollar" unicode="$" horiz-adv-x="449" 
d="M407 197q0 -112 -46 -157q-32 -32 -88 -42v-112h-99v111q-57 9 -91 43q-45 45 -45 153h112q0 -57 20 -80q17 -19 52 -19q36 0 53 20q20 23 20 79q0 57 -12.5 78.5t-54.5 38.5l-85 35q-55 23 -77 60.5t-22 118.5q0 99 58 151q31 28 72 37v94h99v-93q48 -9 79 -38
q50 -49 50 -155h-112q0 54 -17 76q-16 21 -50 21q-30 0 -48 -20q-19 -22 -19 -70q0 -44 11 -62.5t48 -33.5l84 -34q64 -26 86 -67.5t22 -132.5z" />
    <glyph glyph-name="percent" unicode="%" horiz-adv-x="732" 
d="M685 112q0 -57 -36.5 -88.5t-90.5 -31.5t-90.5 31.5t-36.5 88.5v133q0 57 36.5 88.5t90.5 31.5t90.5 -31.5t36.5 -88.5v-133zM301 467q0 -57 -36.5 -88.5t-90.5 -31.5t-90.5 31.5t-36.5 88.5v133q0 57 36.5 88.5t90.5 31.5t90.5 -31.5t36.5 -88.5v-133zM532 712
l-248 -712h-82l248 712h82zM214 469v129q0 45 -40 45q-41 0 -41 -45v-129q0 -45 41 -45q40 0 40 45zM598 114v129q0 45 -40 45t-40 -45v-129q0 -45 40 -45t40 45z" />
    <glyph glyph-name="ampersand" unicode="&#x26;" horiz-adv-x="499" 
d="M497 0h-111l-39 63q-63 -71 -146 -71q-74 0 -120.5 49.5t-46.5 133.5q0 107 106 215q-39 52 -57 90t-18 80q0 76 40 117.5t102 41.5q70 0 107 -41.5t37 -107.5q0 -59 -22.5 -103.5t-68.5 -92.5l85 -131q24 51 29 131h91q-5 -125 -61 -225zM295 144l-103 160
q-59 -60 -59 -122q0 -42 21.5 -68.5t55.5 -26.5q45 0 85 57zM256 568q0 25 -13.5 40.5t-34.5 15.5q-22 0 -35 -16t-13 -44q0 -42 47 -105q26 29 37.5 52t11.5 57z" />
    <glyph glyph-name="quotesingle" unicode="'" horiz-adv-x="247" 
d="M174 511h-102v201h102v-201z" />
    <glyph glyph-name="parenleft" unicode="(" horiz-adv-x="265" 
d="M224 -23l-71 -71q-61 61 -81 96q-24 42 -24 118v472q0 76 24 118q21 36 81 96l71 -71q-42 -42 -56 -67t-14 -82v-460q0 -57 14 -82t56 -67z" />
    <glyph glyph-name="parenright" unicode=")" horiz-adv-x="265" 
d="M218 120q0 -74 -25 -118q-17 -31 -80 -96l-72 71q42 42 56 67q15 27 15 82v460q0 53 -15 82q-13 24 -56 67l72 71q63 -65 80 -96q25 -44 25 -118v-472z" />
    <glyph glyph-name="asterisk" unicode="*" horiz-adv-x="417" 
d="M374 479l-38 -65l-93 58l4 -126h-77l4 126l-94 -58l-37 65l98 51l-98 51l37 66l94 -59l-4 126h77l-4 -126l93 59l38 -66l-98 -51z" />
    <glyph glyph-name="plus" unicode="+" horiz-adv-x="457" 
d="M413 238h-134v-134h-101v134h-134v101h134v134h101v-134h134v-101z" />
    <glyph glyph-name="comma" unicode="," horiz-adv-x="229" 
d="M172 -65l-115 -85v274h115v-189z" />
    <glyph glyph-name="hyphen" unicode="-" horiz-adv-x="295" 
d="M249 238h-202v101h202v-101z" />
    <glyph glyph-name="period" unicode="." horiz-adv-x="234" 
d="M179 0h-123v123h123v-123z" />
    <glyph glyph-name="slash" unicode="/" horiz-adv-x="298" 
d="M291 786l-185 -860h-100l185 860h100z" />
    <glyph glyph-name="zero" unicode="0" horiz-adv-x="401" 
d="M359 152q0 -75 -45 -118q-44 -42 -113 -42q-70 0 -114 42q-45 43 -45 118v408q0 75 45 118q44 42 114 42q69 0 113 -42q45 -43 45 -118v-408zM253 148v416q0 30 -14.5 45.5t-37.5 15.5t-38 -16t-15 -45v-416q0 -29 15 -45t38 -16t37.5 15.5t14.5 45.5z" />
    <glyph glyph-name="one" unicode="1" horiz-adv-x="401" 
d="M283 0h-106v588l-107 -82v120l107 86h106v-712z" />
    <glyph glyph-name="two" unicode="2" horiz-adv-x="401" 
d="M360 0h-313v90l178 346q29 54 29 127q0 30 -14 46t-37 16t-38 -16t-15 -45v-46h-106v42q0 76 44 118t115 42q69 0 110 -38q47 -44 47 -123q0 -81 -39 -156l-161 -308h200v-95z" />
    <glyph glyph-name="three" unicode="3" horiz-adv-x="401" 
d="M361 203q0 -70 -8.5 -105.5t-38.5 -64.5q-44 -41 -114 -41q-73 0 -115 42q-44 42 -44 118v42h106v-46q0 -30 14.5 -45.5t38.5 -15.5t37 17q18 21 18 99q0 91 -16 111q-13 18 -40 18h-35v89h35q22 0 34 14q16 19 16 90q0 66 -14 84q-13 16 -35 16t-35 -14.5t-13 -42.5v-50
h-106v43q0 74 44 118q41 41 110 41t109 -40q46 -45 46 -148q0 -78 -18 -113q-15 -28 -39 -42q30 -21 41 -43q22 -37 22 -131z" />
    <glyph glyph-name="four" unicode="4" horiz-adv-x="401" 
d="M377 111h-49v-111h-106v111h-198v95l183 506h103l-177 -506h89v127h106v-127h49v-95z" />
    <glyph glyph-name="five" unicode="5" horiz-adv-x="401" 
d="M362 231q0 -80 -8 -121t-40 -74q-42 -44 -113 -44t-114 41q-45 42 -45 119v35h106v-37q0 -31 14.5 -47t38.5 -16t38 18q17 23 17 126t-14 125q-15 22 -41 22q-23 0 -38 -16t-15 -45v-15h-101v410h307v-95h-210v-191q14 20 37 34q22 13 51 13q62 0 96 -43q19 -23 26.5 -65
t7.5 -134z" />
    <glyph glyph-name="six" unicode="6" horiz-adv-x="401" 
d="M361 216q0 -118 -34 -167q-40 -57 -127 -57q-85 0 -125 57q-20 30 -27.5 66t-7.5 101q0 94 29 168l125 328h110l-117 -288q16 12 44 12q60 0 94 -44q20 -26 28 -62.5t8 -113.5zM255 218q0 93 -16 113q-14 18 -38 18q-25 0 -39 -18q-16 -20 -16 -113t16 -113
q14 -18 39 -18q24 0 38 18q16 20 16 113z" />
    <glyph glyph-name="seven" unicode="7" horiz-adv-x="401" 
d="M365 624l-187 -624h-106l187 617h-124v-95h-102v190h332v-88z" />
    <glyph glyph-name="eight" unicode="8" horiz-adv-x="401" 
d="M361 201q0 -65 -9 -101.5t-38 -65.5q-42 -42 -113 -42q-70 0 -114 42q-29 29 -38 65.5t-9 101.5q0 88 21 126q14 24 42 45q-26 20 -39 44q-19 39 -19 111q0 106 46 152q41 41 109 41q70 0 110 -41q46 -46 46 -152q0 -72 -19 -111q-13 -24 -39 -44q28 -21 42 -45
q21 -38 21 -126zM255 207q0 83 -16 104q-14 17 -38 17q-25 0 -39 -17q-16 -21 -16 -104q0 -82 16 -103q14 -17 39 -17q24 0 38 17q16 21 16 103zM250 521q0 74 -17 92q-12 12 -32 12q-21 0 -33 -12q-17 -18 -17 -92q0 -73 18 -92q12 -12 32 -12t32 12q17 18 17 92z" />
    <glyph glyph-name="nine" unicode="9" horiz-adv-x="401" 
d="M361 496q0 -94 -29 -168l-125 -328h-110l117 288q-16 -12 -43 -12q-60 0 -95 44q-20 26 -28 62.5t-8 113.5q0 68 8 103.5t27 63.5q40 57 126 57q85 0 125 -57q20 -30 27.5 -66t7.5 -101zM255 494q0 93 -16 113q-14 18 -38 18q-25 0 -39 -18q-16 -20 -16 -113t16 -113
q14 -18 39 -18q24 0 38 18q16 20 16 113z" />
    <glyph glyph-name="colon" unicode=":" horiz-adv-x="257" 
d="M202 313h-124v123h124v-123zM202 0h-124v123h124v-123z" />
    <glyph glyph-name="semicolon" unicode=";" horiz-adv-x="257" 
d="M198 -65l-116 -85v274h116v-189zM202 313h-124v123h124v-123z" />
    <glyph glyph-name="less" unicode="&#x3c;" horiz-adv-x="401" 
d="M367 60l-333 195v74l333 194v-116l-203 -115l203 -115v-117z" />
    <glyph glyph-name="equal" unicode="=" horiz-adv-x="457" 
d="M413 326h-369v101h369v-101zM413 145h-369v101h369v-101z" />
    <glyph glyph-name="greater" unicode="&#x3e;" horiz-adv-x="401" 
d="M367 255l-333 -195v117l203 115l-203 115v116l333 -194v-74z" />
    <glyph glyph-name="question" unicode="?" horiz-adv-x="426" 
d="M393 524q0 -78 -34 -123l-59 -79q-23 -31 -23 -65v-57h-106v69q0 45 31 86l59 79q26 34 26 93q0 55 -20 77q-17 19 -43 19t-43 -18q-19 -21 -19 -78h-106q0 100 47 144q51 47 120 47q79 0 122 -45q48 -48 48 -149zM286 0h-124v123h124v-123z" />
    <glyph glyph-name="at" unicode="@" horiz-adv-x="608" 
d="M554 0h-102v40q-18 -24 -35 -33q-25 -15 -54 -15q-60 0 -95 41q-30 34 -30 114v188q0 80 30 114q35 41 95 41q29 0 54 -14q19 -10 31 -27v83q0 89 -83 89h-130q-82 0 -82 -89v-396q0 -45 29 -73l-77 -76q-32 31 -45 62.5t-13 81.5v417q0 77 46 121q43 43 118 43h178
q75 0 118 -43q47 -45 47 -121v-548zM448 148v186q0 30 -14.5 46t-37.5 16t-37.5 -16t-14.5 -46v-186q0 -30 14.5 -45.5t37.5 -15.5t37.5 15.5t14.5 45.5z" />
    <glyph glyph-name="A" unicode="A" horiz-adv-x="468" 
d="M462 0h-117l-29 141h-165l-28 -141h-118l175 712h109zM295 242l-61 298l-61 -298h122z" />
    <glyph glyph-name="B" unicode="B" horiz-adv-x="472" 
d="M423 204q0 -63 -10 -98t-36 -61q-45 -45 -140 -45h-177v712h178q95 0 138 -44q25 -25 35 -57t10 -89q0 -82 -41 -124q-17 -17 -37 -25q24 -11 39 -26q41 -42 41 -143zM311 212q0 59 -20 85t-65 26h-54v-222h54q46 0 65.5 25t19.5 86zM309 515q0 52 -18.5 74t-62.5 22h-56
v-193h56q43 0 62 23t19 74z" />
    <glyph glyph-name="C" unicode="C" horiz-adv-x="447" 
d="M413 189q-3 -101 -59 -152q-48 -45 -123 -45q-87 0 -138 61q-33 40 -42.5 102.5t-9.5 200.5t9.5 200.5t42.5 102.5q51 61 138 61q76 0 125 -46q54 -49 57 -150h-112q-2 48 -17 69q-16 26 -53 26q-36 0 -53 -27q-15 -24 -20 -76.5t-5 -159.5t5 -159.5t20 -76.5
q17 -27 53 -27q37 0 53 26q15 23 17 70h112z" />
    <glyph glyph-name="D" unicode="D" horiz-adv-x="472" 
d="M431 357q0 -136 -9 -198.5t-43 -99.5q-52 -59 -138 -59h-181v712h181q86 0 138 -59q34 -37 43 -98.5t9 -197.5zM319 357q0 104 -4.5 153t-19.5 72q-19 29 -57 29h-66v-510h66q38 0 57 29q15 23 19.5 72.5t4.5 154.5z" />
    <glyph glyph-name="E" unicode="E" 
d="M359 0h-299v712h299v-101h-187v-202h161v-101h-161v-207h187v-101z" />
    <glyph glyph-name="F" unicode="F" horiz-adv-x="390" 
d="M359 611h-187v-202h161v-101h-161v-308h-112v712h299v-101z" />
    <glyph glyph-name="G" unicode="G" horiz-adv-x="455" 
d="M413 190q0 -95 -49.5 -146.5t-132.5 -51.5q-87 0 -138 61q-33 40 -42.5 102.5t-9.5 200.5t9.5 200.5t42.5 102.5q51 61 138 61q79 0 127 -48q52 -53 55 -149h-112q-2 96 -70 96q-36 0 -53 -27q-15 -24 -20 -76.5t-5 -159.5t5 -159.5t20 -76.5q17 -27 53 -27
q35 0 52.5 25.5t17.5 65.5v111h-70v92h182v-197z" />
    <glyph glyph-name="H" unicode="H" horiz-adv-x="483" 
d="M423 0h-112v311h-139v-311h-112v712h112v-300h139v300h112v-712z" />
    <glyph glyph-name="I" unicode="I" horiz-adv-x="232" 
d="M172 0h-112v712h112v-712z" />
    <glyph glyph-name="J" unicode="J" horiz-adv-x="389" 
d="M335 186q0 -90 -49 -140q-51 -54 -143 -54q-86 0 -140 57l78 75q22 -31 62 -31q36 0 58 24.5t22 68.5v526h112v-526z" />
    <glyph glyph-name="K" unicode="K" horiz-adv-x="469" 
d="M462 0h-121l-115 293l-54 -110v-183h-112v712h112v-335l155 335h113l-143 -295z" />
    <glyph glyph-name="L" unicode="L" horiz-adv-x="383" 
d="M359 0h-299v712h112v-611h187v-101z" />
    <glyph glyph-name="M" unicode="M" horiz-adv-x="598" 
d="M538 0h-112v444l-97 -292h-62l-95 287v-439h-112v712h101l138 -374l137 374h102v-712z" />
    <glyph glyph-name="N" unicode="N" horiz-adv-x="499" 
d="M439 0h-99l-168 423v-423h-112v712h100l167 -423v423h112v-712z" />
    <glyph glyph-name="O" unicode="O" horiz-adv-x="462" 
d="M421 356q0 -139 -9 -201.5t-43 -101.5q-51 -61 -138 -61t-138 61q-33 40 -42.5 102.5t-9.5 200.5t9.5 200.5t42.5 102.5q51 61 138 61t138 -61q34 -39 43 -101.5t9 -201.5zM309 356q0 107 -4.5 159.5t-19.5 76.5q-17 27 -54 27q-36 0 -53 -27q-25 -40 -25 -236t25 -236
q17 -27 53 -27q37 0 54 27q15 24 19.5 76.5t4.5 159.5z" />
    <glyph glyph-name="P" unicode="P" horiz-adv-x="459" 
d="M422 495q0 -112 -43.5 -164t-139.5 -52h-67v-279h-112v712h179q96 0 139.5 -52t43.5 -165zM310 495q0 58 -16 87t-59 29h-63v-231h63q43 0 59 28.5t16 86.5z" />
    <glyph glyph-name="Q" unicode="Q" horiz-adv-x="462" 
d="M451 39l-51 -62l-58 49q-46 -34 -111 -34q-86 0 -138 61q-34 39 -43 101.5t-9 201.5t9 201.5t43 101.5q52 61 138 61q87 0 138 -61q34 -39 43 -101.5t9 -201.5q0 -122 -5.5 -177t-23.5 -91zM309 356q0 110 -4.5 161t-19.5 75q-17 27 -54 27q-36 0 -53 -27
q-15 -24 -20 -76t-5 -160t5 -160t20 -76q17 -27 53 -27q15 0 24 5l-37 31l52 62l29 -24q10 43 10 189z" />
    <glyph glyph-name="R" unicode="R" horiz-adv-x="478" 
d="M445 0h-117l-93 292h-63v-292h-112v712h180q97 0 139.5 -49.5t42.5 -160.5q0 -71 -18.5 -116t-64.5 -70zM310 502q0 52 -14 80.5t-55 28.5h-69v-218h69q41 0 55 28.5t14 80.5z" />
    <glyph glyph-name="S" unicode="S" horiz-adv-x="442" 
d="M404 197q0 -112 -46 -157q-49 -47 -139 -47q-91 0 -138 47q-46 46 -46 153h112q0 -57 20 -80q17 -19 52 -19q37 0 54 20q19 22 19 79t-12.5 78.5t-54.5 38.5l-85 35q-55 23 -77 60.5t-22 118.5q0 99 58 151q49 43 122 43q83 0 128 -43q50 -49 50 -155h-112q0 54 -17 76
q-16 21 -50 21q-30 0 -48 -20q-19 -22 -19 -70q0 -44 11 -62.5t48 -33.5l84 -34q63 -26 85.5 -68t22.5 -132z" />
    <glyph glyph-name="T" unicode="T" horiz-adv-x="393" 
d="M372 611h-120v-611h-112v611h-119v101h351v-101z" />
    <glyph glyph-name="U" unicode="U" horiz-adv-x="471" 
d="M417 175q0 -80 -49 -131q-51 -52 -132 -52q-82 0 -133 52q-49 51 -49 131v537h112v-543q0 -37 20 -56.5t50 -19.5t49.5 19.5t19.5 56.5v543h112v-537z" />
    <glyph glyph-name="V" unicode="V" horiz-adv-x="437" 
d="M433 712l-157 -712h-116l-156 712h123l91 -540l92 540h123z" />
    <glyph glyph-name="W" unicode="W" horiz-adv-x="714" 
d="M710 712l-134 -712h-117l-102 541l-101 -541h-117l-135 712h123l70 -540l98 540h124l99 -540l69 540h123z" />
    <glyph glyph-name="X" unicode="X" horiz-adv-x="432" 
d="M421 0h-123l-82 256l-82 -256h-123l141 369l-130 343h123l71 -238l71 238h123l-133 -343z" />
    <glyph glyph-name="Y" unicode="Y" horiz-adv-x="389" 
d="M388 712l-138 -433v-279h-112v279l-138 433h124l70 -282l71 282h123z" />
    <glyph glyph-name="Z" unicode="Z" horiz-adv-x="373" 
d="M341 0h-310v84l194 527h-182v101h298v-84l-193 -527h193v-101z" />
    <glyph glyph-name="bracketleft" unicode="[" horiz-adv-x="282" 
d="M253 -74h-200v860h200v-94h-94v-672h94v-94z" />
    <glyph glyph-name="backslash" unicode="\" horiz-adv-x="298" 
d="M291 -74h-100l-185 860h100z" />
    <glyph glyph-name="bracketright" unicode="]" horiz-adv-x="282" 
d="M228 -74h-199v94h93v672h-93v94h199v-860z" />
    <glyph glyph-name="asciicircum" unicode="^" horiz-adv-x="463" 
d="M418 434h-103l-83 177l-83 -177h-104l140 283h93z" />
    <glyph glyph-name="underscore" unicode="_" horiz-adv-x="457" 
d="M457 -153h-457v77h457v-77z" />
    <glyph glyph-name="grave" unicode="`" horiz-adv-x="399" 
d="M245 587h-74l-87 139h89z" />
    <glyph glyph-name="a" unicode="a" horiz-adv-x="399" 
d="M350 0h-100v45q-18 -25 -32 -35q-26 -18 -60 -18q-61 0 -99 44q-32 38 -32 118q0 75 49 118q41 36 121 36h47v73q0 61 -51 61q-22 0 -35 -15q-16 -17 -16 -49h-106q0 69 45 114q43 43 111 43q74 0 112 -39q46 -46 46 -124v-372zM244 155v78h-35q-38 0 -55 -16
q-21 -19 -21 -59q0 -73 55 -73q24 0 40 19t16 51z" />
    <glyph glyph-name="b" unicode="b" horiz-adv-x="408" 
d="M372 264q0 -101 -6.5 -151.5t-30.5 -79.5q-34 -41 -93 -41q-30 0 -53 14q-25 16 -35 33v-39h-102v712h106v-219q14 17 31 28q23 14 53 14q60 0 93 -41q24 -29 30.5 -79t6.5 -151zM266 264q0 134 -17 156q-15 21 -39 21q-22 0 -36 -15q-16 -18 -16 -49v-227q0 -33 16 -49
q14 -14 36 -14q25 0 39 20q17 22 17 157z" />
    <glyph glyph-name="c" unicode="c" horiz-adv-x="384" 
d="M356 155q-5 -83 -46 -124q-39 -39 -112 -39q-85 0 -125 56q-37 50 -37 216q0 164 37 216q40 55 125 55q70 0 111 -38q42 -40 47 -124h-105q-2 34 -14 49q-13 19 -39 19q-27 0 -41 -22q-15 -26 -15 -155t15 -156q13 -21 41 -21q26 0 39 18q12 17 14 50h105z" />
    <glyph glyph-name="d" unicode="d" horiz-adv-x="408" 
d="M356 0h-102v40q-8 -18 -35 -33q-23 -15 -53 -15q-59 0 -93 41q-24 29 -30.5 80t-6.5 151t6.5 150.5t30.5 79.5q34 41 93 41q30 0 53 -14q15 -8 31 -28v219h106v-712zM250 150v227q0 33 -16 49q-15 15 -36 15q-24 0 -39 -21q-17 -22 -17 -156q0 -135 17 -157
q14 -20 39 -20q22 0 36 14q16 16 16 49z" />
    <glyph glyph-name="e" unicode="e" horiz-adv-x="394" 
d="M360 233h-218q0 -100 16 -125q14 -21 41 -21q26 0 40 20q13 16 13 48h106q-3 -77 -45 -121q-39 -42 -114 -42q-72 0 -114 43q-30 31 -39.5 87t-9.5 142t9.5 142t39.5 87q41 42 113 42q71 0 113 -42q29 -29 39 -91t10 -169zM254 311q0 87 -15 109q-15 21 -41 21t-41 -21
q-15 -22 -15 -109h112z" />
    <glyph glyph-name="f" unicode="f" horiz-adv-x="271" 
d="M252 432h-73v-432h-106v432h-54v81h54v45q0 85 53 127q43 33 126 33v-95q-73 0 -73 -71v-39h73v-81z" />
    <glyph glyph-name="g" unicode="g" horiz-adv-x="408" 
d="M356 527v-537q0 -92 -45 -137q-43 -43 -114 -43q-73 0 -114 41q-44 43 -44 116h105q0 -32 14 -50q13 -16 39 -16q24 0 38 17q15 19 15 65v91q-13 -17 -29 -28q-21 -14 -53 -14q-55 0 -90 39q-25 29 -33.5 76t-8.5 137q0 89 8.5 136t33.5 76q35 39 90 39q34 0 55 -14
q18 -12 31 -28v34h102zM250 187v190q0 33 -16 49q-15 15 -36 15q-24 0 -39 -21q-17 -22 -17 -138t17 -138q17 -20 39 -20t36 14q16 16 16 49z" />
    <glyph glyph-name="h" unicode="h" horiz-adv-x="417" 
d="M368 0h-106v379q0 30 -14.5 45.5t-37.5 15.5t-37.5 -15.5t-14.5 -45.5v-379h-106v712h106v-219q13 18 31 28q23 14 53 14q61 0 96 -41q30 -34 30 -114v-380z" />
    <glyph glyph-name="i" unicode="i" horiz-adv-x="210" 
d="M158 0h-106v513h106v-513zM163 594h-117v117h117v-117z" />
    <glyph glyph-name="j" unicode="j" horiz-adv-x="210" 
d="M158 -25q0 -86 -54 -127q-43 -33 -124 -33v95q37 0 54.5 16t17.5 55v532h106v-538zM163 594h-117v117h117v-117z" />
    <glyph glyph-name="k" unicode="k" horiz-adv-x="416" 
d="M409 0h-117l-89 222l-45 -71v-151h-106v712h106v-410l133 225h111l-131 -209z" />
    <glyph glyph-name="l" unicode="l" horiz-adv-x="244" 
d="M227 0q-84 0 -125 32q-53 40 -53 128v552h106v-546q0 -71 72 -71v-95z" />
    <glyph glyph-name="m" unicode="m" horiz-adv-x="628" 
d="M579 0h-106v379q0 29 -15 45t-38 16t-37.5 -15.5t-14.5 -45.5v-379h-106v379q0 30 -14.5 45.5t-37.5 15.5t-37.5 -15.5t-14.5 -45.5v-379h-106v527h102v-39q18 24 35 33q23 14 53 14q65 0 103 -54q22 25 47 40q25 14 56 14q65 0 100 -41q31 -35 31 -114v-380z" />
    <glyph glyph-name="n" unicode="n" horiz-adv-x="417" 
d="M368 0h-106v379q0 30 -14.5 45.5t-37.5 15.5t-37.5 -15.5t-14.5 -45.5v-379h-106v527h102v-39q18 24 35 33q23 14 53 14q61 0 96 -41q30 -34 30 -114v-380z" />
    <glyph glyph-name="o" unicode="o" 
d="M360 264q0 -164 -37 -216q-40 -56 -125 -56t-125 56q-37 52 -37 216t37 216q40 55 125 55t125 -55q37 -52 37 -216zM254 264q0 129 -15 155q-14 22 -41 22t-41 -22q-15 -26 -15 -155q0 -130 15 -156q13 -21 41 -21t41 21q15 26 15 156z" />
    <glyph glyph-name="p" unicode="p" horiz-adv-x="408" 
d="M372 264q0 -98 -7 -149.5t-30 -81.5q-33 -41 -93 -41q-30 0 -53 14q-17 11 -31 28v-219h-106v712h102v-39q8 16 35 33q23 14 53 14q60 0 93 -41q24 -30 30.5 -81t6.5 -149zM266 264q0 134 -17 156q-15 21 -39 21q-22 0 -36 -15q-16 -18 -16 -49v-227q0 -33 16 -49
q14 -14 36 -14q25 0 39 20q17 22 17 157z" />
    <glyph glyph-name="q" unicode="q" horiz-adv-x="408" 
d="M356 -185h-106v219q-14 -17 -31 -28q-23 -14 -53 -14q-59 0 -93 41q-24 29 -30.5 80t-6.5 151t6.5 150.5t30.5 79.5q34 41 93 41q30 0 53 -14q27 -17 35 -33v39h102v-712zM250 150v227q0 33 -16 49q-15 15 -36 15q-24 0 -39 -21q-17 -22 -17 -156q0 -135 17 -157
q14 -20 39 -20q22 0 36 14q16 16 16 49z" />
    <glyph glyph-name="r" unicode="r" horiz-adv-x="299" 
d="M282 432h-36q-38 0 -63 -24.5t-25 -66.5v-341h-106v527h102v-56q16 24 46 42q36 22 82 22v-103z" />
    <glyph glyph-name="s" unicode="s" horiz-adv-x="381" 
d="M352 152q0 -70 -47 -117q-43 -43 -115 -43q-75 0 -116 43q-47 49 -47 119h105q0 -32 18 -50q15 -16 40 -16t41 15q15 13 15 42q0 23 -11 39q-12 18 -41 30l-70 31q-54 24 -77 61q-17 27 -17 72q0 65 46 113q44 44 114 44q69 0 111 -40q45 -43 45 -117h-104q0 32 -15 48
t-37 16q-24 0 -39 -15t-15 -40q0 -19 8 -31q11 -18 39 -30l70 -30q54 -24 77 -58q22 -31 22 -86z" />
    <glyph glyph-name="t" unicode="t" horiz-adv-x="274" 
d="M254 0q-87 0 -128 32q-53 42 -53 128v272h-54v81h54v149h106v-149h73v-81h-73v-266q0 -71 75 -71v-95z" />
    <glyph glyph-name="u" unicode="u" horiz-adv-x="417" 
d="M365 0h-101v40q-17 -23 -36 -33q-25 -15 -53 -15q-61 0 -96 41q-30 34 -30 114v380h106v-379q0 -30 14.5 -45.5t37.5 -15.5t37.5 15.5t14.5 45.5v379h106v-527z" />
    <glyph glyph-name="v" unicode="v" horiz-adv-x="381" 
d="M377 527l-130 -527h-112l-131 527h117l70 -359l69 359h117z" />
    <glyph glyph-name="w" unicode="w" horiz-adv-x="577" 
d="M573 527l-118 -527h-105l-63 342l-62 -342h-105l-116 527h118l55 -359l65 359h91l66 -359l55 359h119z" />
    <glyph glyph-name="x" unicode="x" horiz-adv-x="391" 
d="M382 0h-118l-69 164l-69 -164h-117l124 268l-118 259h117l63 -160l63 160h118l-120 -259z" />
    <glyph glyph-name="y" unicode="y" horiz-adv-x="382" 
d="M377 527l-148 -594q-18 -73 -65.5 -95.5t-131.5 -22.5v94q28 1 43 3.5t30 15t21 36.5l9 37l-131 526h117l70 -359l69 359h117z" />
    <glyph glyph-name="z" unicode="z" horiz-adv-x="325" 
d="M299 0h-273v80l154 353h-142v94h261v-79l-154 -353h154v-95z" />
    <glyph glyph-name="braceleft" unicode="{" horiz-adv-x="335" 
d="M307 -74h-61q-55 0 -94 36q-38 36 -38 104v190q0 23 -13 38t-33 15h-39v94h39q20 0 33 15t13 38v190q0 68 38 104q39 36 94 36h61v-95h-39q-21 0 -34.5 -14.5t-13.5 -37.5v-180q0 -54 -27 -81q-16 -16 -40 -22q24 -6 40 -22q27 -27 27 -81v-180q0 -23 13.5 -37.5
t34.5 -14.5h39v-95z" />
    <glyph glyph-name="bar" unicode="|" horiz-adv-x="330" 
d="M218 -74h-106v860h106v-860z" />
    <glyph glyph-name="braceright" unicode="}" horiz-adv-x="335" 
d="M89 -74h-61v95h39q21 0 34.5 14.5t13.5 37.5v180q0 54 27 81q16 16 40 22q-24 6 -40 22q-27 27 -27 81v180q0 23 -13.5 37.5t-34.5 14.5h-39v95h61q55 0 94 -36q38 -36 38 -104v-190q0 -23 13 -38t33 -15h39v-94h-39q-20 0 -33 -15t-13 -38v-190q0 -68 -38 -104
q-39 -36 -94 -36z" />
    <glyph glyph-name="asciitilde" unicode="~" horiz-adv-x="457" 
d="M434 287q-66 -66 -126 -66q-41 0 -88 25q-38 20 -66 20q-33 0 -66 -33l-65 64q66 66 126 66q42 0 89 -25q38 -20 65 -20q33 0 66 33z" />
    <glyph glyph-name="uni00A0" unicode="&#xa0;" horiz-adv-x="179" 
 />
    <glyph glyph-name="exclamdown" unicode="&#xa1;" horiz-adv-x="257" 
d="M170 -185h-106v513h106v-513zM179 404h-123v123h123v-123z" />
    <glyph glyph-name="cent" unicode="&#xa2;" horiz-adv-x="392" 
d="M360 259q-3 -78 -45 -118q-24 -24 -71 -34v-107h-81v107q-54 10 -85 50q-37 49 -37 206t37 206q31 40 85 50v93h81v-93q40 -6 70 -33q42 -38 46 -119h-105q0 30 -13 47q-14 17 -39 17q-28 0 -41 -20q-15 -25 -15 -148t15 -148q14 -21 41 -21q24 0 39 18q13 15 13 47h105z
" />
    <glyph glyph-name="sterling" unicode="&#xa3;" horiz-adv-x="460" 
d="M427 0h-332v324h-63v81h63v122q0 86 54.5 139.5t136.5 53.5q86 0 141 -57l-77 -75q-26 31 -64 31q-34 0 -56.5 -24.5t-22.5 -66.5v-123h80v-81h-80v-223h220v-101z" />
    <glyph glyph-name="currency" unicode="&#xa4;" horiz-adv-x="505" 
d="M464 141l-65 -66l-57 56q-43 -25 -89 -25q-45 0 -90 25l-56 -56l-66 66l57 56q-25 41 -25 89q0 49 25 90l-57 56l66 66l56 -56q43 24 90 24t89 -24l57 56l65 -66l-56 -56q25 -43 25 -90q0 -46 -25 -89zM342 286q0 37 -26 63.5t-63 26.5t-63 -26.5t-26 -63.5t26 -63
t63 -26t63 26t26 63z" />
    <glyph glyph-name="yen" unicode="&#xa5;" horiz-adv-x="389" 
d="M380 712l-93 -305h59v-80h-84l-15 -48v-40h99v-81h-99v-158h-106v158h-99v81h99v40l-14 48h-85v80h60l-93 305h117l68 -282l69 282h117z" />
    <glyph glyph-name="brokenbar" unicode="&#xa6;" horiz-adv-x="330" 
d="M218 438h-106v346h106v-346zM218 -72h-106v346h106v-346z" />
    <glyph glyph-name="section" unicode="&#xa7;" horiz-adv-x="429" 
d="M278 270q0 48 -4.5 68.5t-18.5 32.5q-17 15 -40 15q-22 0 -40 -15q-13 -12 -18.5 -32.5t-5.5 -68.5q0 -47 5 -68t19 -33q17 -15 40 -15t40 15q23 20 23 101zM384 270q0 -61 -9 -93t-40 -58q-14 -12 -26 -15q33 -21 49 -48q19 -32 19 -76q0 -71 -47 -118q-41 -42 -118 -42
q-72 0 -116 44q-47 47 -47 113h108q0 -28 16 -45q15 -16 39 -16q27 0 41 14q15 15 15 41q0 21 -11 37q-14 20 -41 31l-73 31q-30 13 -50 32q-32 31 -40 66.5t-8 101.5q0 58 9.5 89t39.5 57q15 11 28 16q-35 22 -51 49q-18 29 -18 75q0 66 46 112q44 44 116 44q63 0 106 -35
q52 -43 52 -118h-106q0 29 -15 44q-15 16 -37 16q-23 0 -38 -15t-15 -39q0 -21 8 -35q12 -19 39 -30l72 -31q38 -15 59 -36q27 -28 35.5 -60t8.5 -103z" />
    <glyph glyph-name="dieresis" unicode="&#xa8;" horiz-adv-x="399" 
d="M337 597h-100v100h100v-100zM162 597h-100v100h100v-100z" />
    <glyph glyph-name="copyright" unicode="&#xa9;" horiz-adv-x="844" 
d="M784 356q0 -150 -106 -256t-256 -106t-256 106t-106 256t106 256t256 106t256 -106t106 -256zM713 356q0 127 -84 212t-207 85t-207 -85t-84 -212t84 -212t207 -85t207 85t84 212zM526 268q-2 -58 -31 -87q-27 -27 -71 -27q-49 0 -77 35q-18 21 -23.5 57.5t-5.5 108.5
t5.5 109t23.5 58q28 35 77 35q44 0 71 -27q29 -29 31 -88h-64q0 32 -10 43q-10 12 -28 12t-29 -15q-13 -21 -13 -127q0 -107 13 -126q11 -15 29 -15t28 12q10 11 10 42h64z" />
    <glyph glyph-name="ordfeminine" unicode="&#xaa;" horiz-adv-x="331" 
d="M289 294h-82v33q-10 -12 -28 -25q-21 -12 -47 -12q-51 0 -81 34q-26 29 -26 92q0 59 41 94q34 29 98 29h37v54q0 47 -41 47q-18 0 -29 -13q-11 -11 -11 -38h-88q0 58 36 93q37 35 92 35q58 0 92 -33q37 -35 37 -99v-291zM201 420v57h-28q-30 0 -43 -12q-17 -17 -17 -45
q0 -56 44 -56q19 0 31.5 15t12.5 41z" />
    <glyph glyph-name="guillemotleft" unicode="&#xab;" horiz-adv-x="414" 
d="M185 27l-161 249l161 248v-158l-61 -90l61 -92v-157zM367 27l-160 249l160 248v-158l-62 -90l62 -92v-157z" />
    <glyph glyph-name="logicalnot" unicode="&#xac;" horiz-adv-x="457" 
d="M407 142h-101v110h-255v101h356v-211z" />
    <glyph glyph-name="uni00AD" unicode="&#xad;" horiz-adv-x="295" 
d="M249 238h-202v101h202v-101z" />
    <glyph glyph-name="registered" unicode="&#xae;" horiz-adv-x="844" 
d="M784 356q0 -150 -106 -256t-256 -106t-256 106t-106 256t106 256t256 106t256 -106t106 -256zM713 356q0 127 -84 212t-207 85t-207 -85t-84 -212t84 -212t207 -85t207 85t84 212zM544 158h-67l-49 160h-35v-160h-65v394h104q50 0 74 -24q26 -27 26 -93q0 -62 -25 -88
q-7 -8 -19 -15zM468 435q0 34 -11 47q-10 10 -25 10h-39v-114h39q15 0 25 10q11 12 11 47z" />
    <glyph glyph-name="macron" unicode="&#xaf;" horiz-adv-x="399" 
d="M322 610h-245v71h245v-71z" />
    <glyph glyph-name="degree" unicode="&#xb0;" horiz-adv-x="410" 
d="M367 564q0 -67 -47.5 -114.5t-114.5 -47.5t-114.5 47.5t-47.5 114.5t47.5 114.5t114.5 47.5t114.5 -47.5t47.5 -114.5zM274 564q0 29 -20 49.5t-49 20.5t-49 -20.5t-20 -49.5t20 -49t49 -20t49 20t20 49z" />
    <glyph glyph-name="plusminus" unicode="&#xb1;" horiz-adv-x="457" 
d="M413 316h-134v-134h-101v134h-134v101h134v134h101v-134h134v-101zM413 13h-369v101h369v-101z" />
    <glyph glyph-name="twosuperior" unicode="&#xb2;" horiz-adv-x="321" 
d="M279 285h-231v56l133 203q21 34 21 72q0 19 -11.5 30t-29.5 11q-41 0 -41 -43v-30h-77v28q0 51 33 78q31 27 85 27q50 0 82 -24q36 -29 36 -79q0 -46 -30 -92l-118 -177h148v-60z" />
    <glyph glyph-name="threesuperior" unicode="&#xb3;" horiz-adv-x="321" 
d="M282 405q0 -39 -6 -60t-28 -38q-30 -27 -85 -27q-52 0 -86 28q-31 25 -31 80v18h77v-20q0 -25 10 -35q13 -11 30 -11q19 0 30 11q12 15 12 59q0 43 -11 57q-10 13 -32 13h-25v57h25q18 0 27 9q13 12 13 56q0 35 -11 45q-10 10 -28 10t-28 -10t-10 -31v-24h-77v20
q0 52 32 78q31 27 83 27q53 0 82 -26q34 -30 34 -88q0 -43 -15 -67q-12 -19 -31 -27q22 -12 34 -30q15 -26 15 -74z" />
    <glyph glyph-name="acute" unicode="&#xb4;" horiz-adv-x="399" 
d="M315 726l-87 -139h-74l72 139h89z" />
    <glyph glyph-name="mu" unicode="&#xb5;" horiz-adv-x="421" 
d="M367 0h-102v40q-18 -24 -35 -33q-25 -15 -56 -15q-16 0 -22 8v-185h-102v712h106v-379q0 -29 15 -45t38 -16t37.5 15.5t14.5 45.5v379h106v-527z" />
    <glyph glyph-name="paragraph" unicode="&#xb6;" horiz-adv-x="602" 
d="M549 -185h-106v796h-101v-796h-106v471h-52q-148 0 -148 213t148 213h365v-897z" />
    <glyph glyph-name="periodcentered" unicode="&#xb7;" horiz-adv-x="272" 
d="M216 221h-160v160h160v-160z" />
    <glyph glyph-name="cedilla" unicode="&#xb8;" horiz-adv-x="399" 
d="M243 -40l-53 -154h-76l61 154h68z" />
    <glyph glyph-name="onesuperior" unicode="&#xb9;" horiz-adv-x="322" 
d="M223 285h-77v349l-74 -47v76l75 49h76v-427z" />
    <glyph glyph-name="ordmasculine" unicode="&#xba;" horiz-adv-x="329" 
d="M297 502q0 -129 -31 -170q-31 -44 -101 -44q-71 0 -102 44q-31 41 -31 170t31 170q31 44 102 44q70 0 101 -44q31 -41 31 -170zM209 502q0 100 -13 120q-11 17 -31 17q-21 0 -32 -17q-13 -20 -13 -120t13 -120q11 -17 32 -17q20 0 31 17q13 20 13 120z" />
    <glyph glyph-name="guillemotright" unicode="&#xbb;" horiz-adv-x="414" 
d="M389 276l-160 -249v157l61 92l-61 90v158zM207 276l-160 -249v157l62 92l-62 90v158z" />
    <glyph glyph-name="onequarter" unicode="&#xbc;" horiz-adv-x="832" 
d="M223 285h-77v349l-74 -47v76l75 49h76v-427zM580 712l-246 -712h-82l246 712h82zM795 63h-33v-63h-77v63h-146v60l109 304h73l-106 -304h70v70h77v-70h33v-60z" />
    <glyph glyph-name="onehalf" unicode="&#xbd;" horiz-adv-x="831" 
d="M223 285h-77v349l-74 -47v76l75 49h76v-427zM580 712l-246 -712h-82l246 712h82zM789 0h-231v56l133 203q21 34 21 72q0 19 -11.5 30t-29.5 11q-41 0 -41 -43v-30h-77v28q0 51 33 78q32 27 85 27q50 0 82 -24q36 -29 36 -79q0 -46 -30 -92l-118 -177h148v-60z" />
    <glyph glyph-name="threequarters" unicode="&#xbe;" horiz-adv-x="831" 
d="M282 405q0 -39 -6 -60t-28 -38q-30 -27 -85 -27q-52 0 -86 28q-31 25 -31 80v18h77v-20q0 -25 10 -35q13 -11 30 -11q19 0 30 11q12 15 12 59q0 43 -11 57q-10 13 -32 13h-25v57h25q18 0 27 9q13 12 13 56q0 35 -11 45q-10 10 -28 10t-28 -10t-10 -31v-24h-77v20
q0 52 32 78q31 27 83 27q53 0 82 -26q34 -30 34 -88q0 -43 -15 -67q-12 -19 -31 -27q22 -12 34 -30q15 -26 15 -74zM579 712l-246 -712h-82l246 712h82zM794 63h-33v-63h-77v63h-146v60l109 304h73l-106 -304h70v70h77v-70h33v-60z" />
    <glyph glyph-name="questiondown" unicode="&#xbf;" horiz-adv-x="426" 
d="M370 1q0 -101 -47 -145q-51 -47 -120 -47q-78 0 -122 46q-48 48 -48 149q0 78 34 123l59 78q23 31 23 65v58h106v-70q0 -45 -31 -86l-59 -78q-26 -34 -26 -93q0 -55 20 -78q17 -19 43 -19t43 19q19 21 19 78h106zM264 404h-123v123h123v-123z" />
    <glyph glyph-name="Agrave" unicode="&#xc0;" horiz-adv-x="468" 
d="M462 0h-117l-29 141h-165l-28 -141h-118l175 712h109zM295 242l-61 298l-61 -298h122zM280 760h-74l-88 139h90z" />
    <glyph glyph-name="Aacute" unicode="&#xc1;" horiz-adv-x="468" 
d="M462 0h-117l-29 141h-165l-28 -141h-118l175 712h109zM295 242l-61 298l-61 -298h122zM350 899l-87 -139h-74l72 139h89z" />
    <glyph glyph-name="Acircumflex" unicode="&#xc2;" horiz-adv-x="468" 
d="M462 0h-117l-29 141h-165l-28 -141h-118l175 712h109zM295 242l-61 298l-61 -298h122zM375 760h-81l-60 82l-59 -82h-81l99 139h83z" />
    <glyph glyph-name="Atilde" unicode="&#xc3;" horiz-adv-x="468" 
d="M462 0h-117l-29 141h-165l-28 -141h-118l175 712h109zM295 242l-61 298l-61 -298h122zM381 814q-46 -46 -90 -46q-30 0 -61 17q-25 15 -44 15q-23 0 -46 -23l-46 46q47 47 89 47q33 0 62 -17q25 -15 44 -15q23 0 45 23z" />
    <glyph glyph-name="Adieresis" unicode="&#xc4;" horiz-adv-x="468" 
d="M462 0h-117l-29 141h-165l-28 -141h-118l175 712h109zM295 242l-61 298l-61 -298h122zM372 770h-100v100h100v-100zM197 770h-100v100h100v-100z" />
    <glyph glyph-name="Aring" unicode="&#xc5;" horiz-adv-x="468" 
d="M462 0h-117l-29 141h-165l-28 -141h-118l175 712h109zM295 242l-61 298l-61 -298h122zM339 858q0 -43 -30.5 -73.5t-74.5 -30.5q-43 0 -73.5 30.5t-30.5 73.5t30.5 73.5t73.5 30.5q44 0 74.5 -30.5t30.5 -73.5zM280 858q0 19 -13.5 32.5t-32.5 13.5t-32 -13.5t-13 -32.5
t13 -32.5t32 -13.5t32.5 13.5t13.5 32.5z" />
    <glyph glyph-name="AE" unicode="&#xc6;" horiz-adv-x="675" 
d="M638 0h-299v148h-158l-52 -148h-123l261 712h371v-101h-187v-202h161v-101h-161v-207h187v-101zM339 249v362l-125 -362h125z" />
    <glyph glyph-name="Ccedilla" unicode="&#xc7;" horiz-adv-x="447" 
d="M413 189q-3 -101 -59 -152q-48 -45 -123 -45q-87 0 -138 61q-33 40 -42.5 102.5t-9.5 200.5t9.5 200.5t42.5 102.5q51 61 138 61q76 0 125 -46q54 -49 57 -150h-112q-2 48 -17 69q-16 26 -53 26q-36 0 -53 -27q-15 -24 -20 -76.5t-5 -159.5t5 -159.5t20 -76.5
q17 -27 53 -27q37 0 53 26q15 23 17 70h112zM267 -40l-53 -154h-76l61 154h68z" />
    <glyph glyph-name="Egrave" unicode="&#xc8;" 
d="M359 0h-299v712h299v-101h-187v-202h161v-101h-161v-207h187v-101zM259 760h-74l-88 139h90z" />
    <glyph glyph-name="Eacute" unicode="&#xc9;" 
d="M359 0h-299v712h299v-101h-187v-202h161v-101h-161v-207h187v-101zM329 899l-87 -139h-74l72 139h89z" />
    <glyph glyph-name="Ecircumflex" unicode="&#xca;" 
d="M359 0h-299v712h299v-101h-187v-202h161v-101h-161v-207h187v-101zM354 760h-81l-60 82l-59 -82h-81l99 139h83z" />
    <glyph glyph-name="Edieresis" unicode="&#xcb;" 
d="M359 0h-299v712h299v-101h-187v-202h161v-101h-161v-207h187v-101zM351 770h-100v100h100v-100zM176 770h-100v100h100v-100z" />
    <glyph glyph-name="Igrave" unicode="&#xcc;" horiz-adv-x="232" 
d="M172 0h-112v712h112v-712zM162 760h-74l-88 139h90z" />
    <glyph glyph-name="Iacute" unicode="&#xcd;" horiz-adv-x="232" 
d="M172 0h-112v712h112v-712zM232 899l-87 -139h-74l72 139h89z" />
    <glyph glyph-name="Icircumflex" unicode="&#xce;" horiz-adv-x="232" 
d="M172 0h-112v712h112v-712zM257 760h-81l-60 82l-59 -82h-81l99 139h83z" />
    <glyph glyph-name="Idieresis" unicode="&#xcf;" horiz-adv-x="232" 
d="M172 0h-112v712h112v-712zM254 770h-100v100h100v-100zM79 770h-100v100h100v-100z" />
    <glyph glyph-name="Eth" unicode="&#xd0;" horiz-adv-x="489" 
d="M26 314v88h51v310h181q86 0 138 -59q34 -37 43 -98.5t9 -197.5t-9 -198.5t-43 -99.5q-52 -59 -138 -59h-181v314h-51zM336 357q0 104 -4.5 153t-19.5 72q-19 29 -57 29h-66v-209h70v-88h-70v-213h66q38 0 57 29q15 23 19.5 72.5t4.5 154.5z" />
    <glyph glyph-name="Ntilde" unicode="&#xd1;" horiz-adv-x="499" 
d="M439 0h-99l-168 423v-423h-112v712h100l167 -423v423h112v-712zM396 814q-46 -46 -90 -46q-30 0 -61 17q-25 15 -44 15q-23 0 -46 -23l-46 46q47 47 89 47q33 0 62 -17q25 -15 44 -15q23 0 45 23z" />
    <glyph glyph-name="Ograve" unicode="&#xd2;" horiz-adv-x="462" 
d="M421 356q0 -139 -9 -201.5t-43 -101.5q-51 -61 -138 -61t-138 61q-33 40 -42.5 102.5t-9.5 200.5t9.5 200.5t42.5 102.5q51 61 138 61t138 -61q34 -39 43 -101.5t9 -201.5zM309 356q0 107 -4.5 159.5t-19.5 76.5q-17 27 -54 27q-36 0 -53 -27q-25 -40 -25 -236t25 -236
q17 -27 53 -27q37 0 54 27q15 24 19.5 76.5t4.5 159.5zM277 760h-74l-88 139h90z" />
    <glyph glyph-name="Oacute" unicode="&#xd3;" horiz-adv-x="462" 
d="M421 356q0 -139 -9 -201.5t-43 -101.5q-51 -61 -138 -61t-138 61q-33 40 -42.5 102.5t-9.5 200.5t9.5 200.5t42.5 102.5q51 61 138 61t138 -61q34 -39 43 -101.5t9 -201.5zM309 356q0 107 -4.5 159.5t-19.5 76.5q-17 27 -54 27q-36 0 -53 -27q-25 -40 -25 -236t25 -236
q17 -27 53 -27q37 0 54 27q15 24 19.5 76.5t4.5 159.5zM347 899l-87 -139h-74l72 139h89z" />
    <glyph glyph-name="Ocircumflex" unicode="&#xd4;" horiz-adv-x="462" 
d="M421 356q0 -139 -9 -201.5t-43 -101.5q-51 -61 -138 -61t-138 61q-33 40 -42.5 102.5t-9.5 200.5t9.5 200.5t42.5 102.5q51 61 138 61t138 -61q34 -39 43 -101.5t9 -201.5zM309 356q0 107 -4.5 159.5t-19.5 76.5q-17 27 -54 27q-36 0 -53 -27q-25 -40 -25 -236t25 -236
q17 -27 53 -27q37 0 54 27q15 24 19.5 76.5t4.5 159.5zM372 760h-81l-60 82l-59 -82h-81l99 139h83z" />
    <glyph glyph-name="Otilde" unicode="&#xd5;" horiz-adv-x="462" 
d="M421 356q0 -139 -9 -201.5t-43 -101.5q-51 -61 -138 -61t-138 61q-33 40 -42.5 102.5t-9.5 200.5t9.5 200.5t42.5 102.5q51 61 138 61t138 -61q34 -39 43 -101.5t9 -201.5zM309 356q0 107 -4.5 159.5t-19.5 76.5q-17 27 -54 27q-36 0 -53 -27q-25 -40 -25 -236t25 -236
q17 -27 53 -27q37 0 54 27q15 24 19.5 76.5t4.5 159.5zM378 814q-46 -46 -90 -46q-30 0 -61 17q-25 15 -44 15q-23 0 -46 -23l-46 46q47 47 89 47q33 0 62 -17q25 -15 44 -15q23 0 45 23z" />
    <glyph glyph-name="Odieresis" unicode="&#xd6;" horiz-adv-x="462" 
d="M421 356q0 -139 -9 -201.5t-43 -101.5q-51 -61 -138 -61t-138 61q-33 40 -42.5 102.5t-9.5 200.5t9.5 200.5t42.5 102.5q51 61 138 61t138 -61q34 -39 43 -101.5t9 -201.5zM309 356q0 107 -4.5 159.5t-19.5 76.5q-17 27 -54 27q-36 0 -53 -27q-25 -40 -25 -236t25 -236
q17 -27 53 -27q37 0 54 27q15 24 19.5 76.5t4.5 159.5zM369 770h-100v100h100v-100zM194 770h-100v100h100v-100z" />
    <glyph glyph-name="multiply" unicode="&#xd7;" horiz-adv-x="457" 
d="M413 170l-68 -68l-116 116l-116 -116l-68 68l116 116l-116 116l68 68l116 -115l116 115l68 -68l-116 -116z" />
    <glyph glyph-name="Oslash" unicode="&#xd8;" horiz-adv-x="462" 
d="M421 356q0 -139 -9 -201.5t-43 -101.5q-51 -61 -138 -61q-47 0 -87 19l-19 -55h-74l37 103q-30 39 -38.5 100.5t-8.5 196.5q0 138 9.5 200.5t42.5 102.5q51 61 138 61q50 0 87 -20l20 56h74l-37 -105q29 -36 37.5 -98.5t8.5 -196.5zM153 356q0 -96 3 -132l125 374
q-18 21 -50 21q-36 0 -53 -27q-25 -40 -25 -236zM309 356q0 78 -3 130l-124 -371q14 -22 49 -22q37 0 54 27q15 24 19.5 76.5t4.5 159.5z" />
    <glyph glyph-name="Ugrave" unicode="&#xd9;" horiz-adv-x="471" 
d="M417 175q0 -80 -49 -131q-51 -52 -132 -52q-82 0 -133 52q-49 51 -49 131v537h112v-543q0 -37 20 -56.5t50 -19.5t49.5 19.5t19.5 56.5v543h112v-537zM281 760h-74l-88 139h90z" />
    <glyph glyph-name="Uacute" unicode="&#xda;" horiz-adv-x="471" 
d="M417 175q0 -80 -49 -131q-51 -52 -132 -52q-82 0 -133 52q-49 51 -49 131v537h112v-543q0 -37 20 -56.5t50 -19.5t49.5 19.5t19.5 56.5v543h112v-537zM351 899l-87 -139h-74l72 139h89z" />
    <glyph glyph-name="Ucircumflex" unicode="&#xdb;" horiz-adv-x="471" 
d="M417 175q0 -80 -49 -131q-51 -52 -132 -52q-82 0 -133 52q-49 51 -49 131v537h112v-543q0 -37 20 -56.5t50 -19.5t49.5 19.5t19.5 56.5v543h112v-537zM376 760h-81l-60 82l-59 -82h-81l99 139h83z" />
    <glyph glyph-name="Udieresis" unicode="&#xdc;" horiz-adv-x="471" 
d="M417 175q0 -80 -49 -131q-51 -52 -132 -52q-82 0 -133 52q-49 51 -49 131v537h112v-543q0 -37 20 -56.5t50 -19.5t49.5 19.5t19.5 56.5v543h112v-537zM373 770h-100v100h100v-100zM198 770h-100v100h100v-100z" />
    <glyph glyph-name="Yacute" unicode="&#xdd;" horiz-adv-x="389" 
d="M388 712l-138 -433v-279h-112v279l-138 433h124l70 -282l71 282h123zM312 899l-87 -139h-74l72 139h89z" />
    <glyph glyph-name="Thorn" unicode="&#xde;" horiz-adv-x="459" 
d="M422 361q0 -113 -43.5 -165.5t-139.5 -52.5h-67v-143h-112v712h112v-135h67q96 0 139.5 -52t43.5 -164zM310 360q0 58 -16 87t-55 29h-67v-232h67q39 0 55 29t16 87z" />
    <glyph glyph-name="germandbls" unicode="&#xdf;" horiz-adv-x="416" 
d="M381 215q0 -45 -2 -69.5t-12.5 -54.5t-32.5 -51q-41 -40 -122 -40v95q32 0 45 17q18 21 18 112q0 82 -15 105q-14 19 -40 19h-8v89h8q20 0 34 17q14 20 14 75t-15 78q-14 18 -41 18q-24 0 -39 -16.5t-15 -47.5v-561h-106v558q0 76 45 119q44 43 114 43q75 0 116 -41
q47 -47 47 -141q0 -67 -17 -101q-15 -28 -38 -43q26 -18 39 -41q15 -24 19 -53.5t4 -84.5z" />
    <glyph glyph-name="agrave" unicode="&#xe0;" horiz-adv-x="399" 
d="M350 0h-100v45q-18 -25 -32 -35q-26 -18 -60 -18q-61 0 -99 44q-32 38 -32 118q0 75 49 118q41 36 121 36h47v73q0 61 -51 61q-22 0 -35 -15q-16 -17 -16 -49h-106q0 69 45 114q43 43 111 43q74 0 112 -39q46 -46 46 -124v-372zM244 155v78h-35q-38 0 -55 -16
q-21 -19 -21 -59q0 -73 55 -73q24 0 40 19t16 51zM242 587h-74l-88 139h90z" />
    <glyph glyph-name="aacute" unicode="&#xe1;" horiz-adv-x="399" 
d="M350 0h-100v45q-18 -25 -32 -35q-26 -18 -60 -18q-61 0 -99 44q-32 38 -32 118q0 75 49 118q41 36 121 36h47v73q0 61 -51 61q-22 0 -35 -15q-16 -17 -16 -49h-106q0 69 45 114q43 43 111 43q74 0 112 -39q46 -46 46 -124v-372zM244 155v78h-35q-38 0 -55 -16
q-21 -19 -21 -59q0 -73 55 -73q24 0 40 19t16 51zM313 726l-88 -139h-74l72 139h90z" />
    <glyph glyph-name="acircumflex" unicode="&#xe2;" horiz-adv-x="399" 
d="M350 0h-100v45q-18 -25 -32 -35q-26 -18 -60 -18q-61 0 -99 44q-32 38 -32 118q0 75 49 118q41 36 121 36h47v73q0 61 -51 61q-22 0 -35 -15q-16 -17 -16 -49h-106q0 69 45 114q43 43 111 43q74 0 112 -39q46 -46 46 -124v-372zM244 155v78h-35q-38 0 -55 -16
q-21 -19 -21 -59q0 -73 55 -73q24 0 40 19t16 51zM336 587h-82l-59 82l-59 -82h-82l99 139h84z" />
    <glyph glyph-name="atilde" unicode="&#xe3;" horiz-adv-x="399" 
d="M350 0h-100v45q-18 -25 -32 -35q-26 -18 -60 -18q-61 0 -99 44q-32 38 -32 118q0 75 49 118q41 36 121 36h47v73q0 61 -51 61q-22 0 -35 -15q-16 -17 -16 -49h-106q0 69 45 114q43 43 111 43q74 0 112 -39q46 -46 46 -124v-372zM244 155v78h-35q-38 0 -55 -16
q-21 -19 -21 -59q0 -73 55 -73q24 0 40 19t16 51zM342 642q-46 -47 -90 -47q-30 0 -61 17q-25 15 -44 15q-23 0 -46 -23l-46 46q47 47 89 47q33 0 62 -17q25 -15 44 -15q23 0 45 23z" />
    <glyph glyph-name="adieresis" unicode="&#xe4;" horiz-adv-x="399" 
d="M350 0h-100v45q-18 -25 -32 -35q-26 -18 -60 -18q-61 0 -99 44q-32 38 -32 118q0 75 49 118q41 36 121 36h47v73q0 61 -51 61q-22 0 -35 -15q-16 -17 -16 -49h-106q0 69 45 114q43 43 111 43q74 0 112 -39q46 -46 46 -124v-372zM244 155v78h-35q-38 0 -55 -16
q-21 -19 -21 -59q0 -73 55 -73q24 0 40 19t16 51zM333 597h-100v100h100v-100zM157 597h-99v100h99v-100z" />
    <glyph glyph-name="aring" unicode="&#xe5;" horiz-adv-x="399" 
d="M350 0h-100v45q-18 -25 -32 -35q-26 -18 -60 -18q-61 0 -99 44q-32 38 -32 118q0 75 49 118q41 36 121 36h47v73q0 61 -51 61q-22 0 -35 -15q-16 -17 -16 -49h-106q0 69 45 114q43 43 111 43q74 0 112 -39q46 -46 46 -124v-372zM244 155v78h-35q-38 0 -55 -16
q-21 -19 -21 -59q0 -73 55 -73q24 0 40 19t16 51zM300 689q0 -43 -31 -73.5t-74 -30.5t-73.5 30.5t-30.5 73.5q0 44 30.5 74.5t73.5 30.5q44 0 74.5 -30.5t30.5 -74.5zM241 689q0 19 -13.5 32.5t-32.5 13.5t-32.5 -13.5t-13.5 -32.5t13.5 -32t32.5 -13t32.5 13t13.5 32z" />
    <glyph glyph-name="ae" unicode="&#xe6;" horiz-adv-x="602" 
d="M244 155v78h-35q-38 0 -55 -16q-21 -19 -21 -59q0 -73 55 -73q24 0 40 19t16 51zM461 311q0 87 -15 109q-15 21 -41 21t-41 -21q-15 -22 -15 -109h112zM568 233h-218q0 -102 16 -125q14 -21 40 -21t41 21q13 16 13 47h105q-3 -76 -44 -121q-39 -42 -115 -42q-54 0 -89 26
q-23 16 -41 44q-21 -33 -42 -48q-31 -22 -76 -22q-61 0 -99 44q-32 40 -32 118q0 75 49 118q41 36 121 36h47v74q0 29 -13.5 44.5t-37.5 15.5t-37 -16q-14 -17 -14 -48h-106q0 69 45 114q43 43 111 43q57 0 88 -24q9 -8 19 -21q6 9 16 17q37 28 91 28q71 0 113 -42
q29 -29 39 -91t10 -169z" />
    <glyph glyph-name="ccedilla" unicode="&#xe7;" horiz-adv-x="384" 
d="M356 155q-5 -83 -46 -124q-39 -39 -112 -39q-85 0 -125 56q-37 50 -37 216q0 164 37 216q40 55 125 55q70 0 111 -38q42 -40 47 -124h-105q-2 34 -14 49q-13 19 -39 19q-27 0 -41 -22q-15 -26 -15 -155t15 -156q13 -21 41 -21q26 0 39 18q12 17 14 50h105zM243 -40
l-53 -154h-76l61 154h68z" />
    <glyph glyph-name="egrave" unicode="&#xe8;" horiz-adv-x="394" 
d="M360 233h-218q0 -100 16 -125q14 -21 41 -21q26 0 40 20q13 16 13 48h106q-3 -77 -45 -121q-39 -42 -114 -42q-72 0 -114 43q-30 31 -39.5 87t-9.5 142t9.5 142t39.5 87q41 42 113 42q71 0 113 -42q29 -29 39 -91t10 -169zM254 311q0 87 -15 109q-15 21 -41 21t-41 -21
q-15 -22 -15 -109h112zM245 587h-74l-88 139h90z" />
    <glyph glyph-name="eacute" unicode="&#xe9;" horiz-adv-x="394" 
d="M360 233h-218q0 -100 16 -125q14 -21 41 -21q26 0 40 20q13 16 13 48h106q-3 -77 -45 -121q-39 -42 -114 -42q-72 0 -114 43q-30 31 -39.5 87t-9.5 142t9.5 142t39.5 87q41 42 113 42q71 0 113 -42q29 -29 39 -91t10 -169zM254 311q0 87 -15 109q-15 21 -41 21t-41 -21
q-15 -22 -15 -109h112zM316 726l-88 -139h-74l72 139h90z" />
    <glyph glyph-name="ecircumflex" unicode="&#xea;" horiz-adv-x="394" 
d="M360 233h-218q0 -100 16 -125q14 -21 41 -21q26 0 40 20q13 16 13 48h106q-3 -77 -45 -121q-39 -42 -114 -42q-72 0 -114 43q-30 31 -39.5 87t-9.5 142t9.5 142t39.5 87q41 42 113 42q71 0 113 -42q29 -29 39 -91t10 -169zM254 311q0 87 -15 109q-15 21 -41 21t-41 -21
q-15 -22 -15 -109h112zM339 587h-82l-59 82l-59 -82h-82l99 139h84z" />
    <glyph glyph-name="edieresis" unicode="&#xeb;" horiz-adv-x="394" 
d="M360 233h-218q0 -100 16 -125q14 -21 41 -21q26 0 40 20q13 16 13 48h106q-3 -77 -45 -121q-39 -42 -114 -42q-72 0 -114 43q-30 31 -39.5 87t-9.5 142t9.5 142t39.5 87q41 42 113 42q71 0 113 -42q29 -29 39 -91t10 -169zM254 311q0 87 -15 109q-15 21 -41 21t-41 -21
q-15 -22 -15 -109h112zM336 597h-100v100h100v-100zM160 597h-99v100h99v-100z" />
    <glyph glyph-name="igrave" unicode="&#xec;" horiz-adv-x="210" 
d="M158 0h-106v513h106v-513zM151 587h-74l-88 139h90z" />
    <glyph glyph-name="iacute" unicode="&#xed;" horiz-adv-x="210" 
d="M158 0h-106v513h106v-513zM223 726l-88 -139h-74l72 139h90z" />
    <glyph glyph-name="icircumflex" unicode="&#xee;" horiz-adv-x="210" 
d="M158 0h-106v513h106v-513zM246 587h-82l-59 82l-59 -82h-82l99 139h84z" />
    <glyph glyph-name="idieresis" unicode="&#xef;" horiz-adv-x="210" 
d="M158 0h-106v513h106v-513zM244 597h-100v100h100v-100zM68 597h-99v100h99v-100z" />
    <glyph glyph-name="eth" unicode="&#xf0;" horiz-adv-x="400" 
d="M362 243q0 -149 -39 -199q-40 -52 -124 -52q-83 0 -123 52q-39 50 -39 199q0 91 7 138.5t31 74.5q34 38 94 38q35 0 60 -17l-30 92h-75v78h51l-23 65h107l22 -65h70v-78h-47l31 -101q27 -90 27 -225zM256 245q0 114 -16 139q-12 20 -41 20q-28 0 -40 -20
q-16 -25 -16 -139q0 -113 16 -138q12 -20 40 -20q29 0 41 20q16 25 16 138z" />
    <glyph glyph-name="ntilde" unicode="&#xf1;" horiz-adv-x="417" 
d="M368 0h-106v379q0 30 -14.5 45.5t-37.5 15.5t-37.5 -15.5t-14.5 -45.5v-379h-106v527h102v-39q18 24 35 33q23 14 53 14q61 0 96 -41q30 -34 30 -114v-380zM358 642q-46 -47 -90 -47q-30 0 -61 17q-25 15 -44 15q-23 0 -46 -23l-46 46q47 47 89 47q33 0 62 -17
q25 -15 44 -15q23 0 45 23z" />
    <glyph glyph-name="ograve" unicode="&#xf2;" 
d="M360 264q0 -164 -37 -216q-40 -56 -125 -56t-125 56q-37 52 -37 216t37 216q40 55 125 55t125 -55q37 -52 37 -216zM254 264q0 129 -15 155q-14 22 -41 22t-41 -22q-15 -26 -15 -155q0 -130 15 -156q13 -21 41 -21t41 21q15 26 15 156zM245 587h-74l-88 139h90z" />
    <glyph glyph-name="oacute" unicode="&#xf3;" 
d="M360 264q0 -164 -37 -216q-40 -56 -125 -56t-125 56q-37 52 -37 216t37 216q40 55 125 55t125 -55q37 -52 37 -216zM254 264q0 129 -15 155q-14 22 -41 22t-41 -22q-15 -26 -15 -155q0 -130 15 -156q13 -21 41 -21t41 21q15 26 15 156zM316 726l-88 -139h-74l72 139h90z
" />
    <glyph glyph-name="ocircumflex" unicode="&#xf4;" 
d="M360 264q0 -164 -37 -216q-40 -56 -125 -56t-125 56q-37 52 -37 216t37 216q40 55 125 55t125 -55q37 -52 37 -216zM254 264q0 129 -15 155q-14 22 -41 22t-41 -22q-15 -26 -15 -155q0 -130 15 -156q13 -21 41 -21t41 21q15 26 15 156zM339 587h-82l-59 82l-59 -82h-82
l99 139h84z" />
    <glyph glyph-name="otilde" unicode="&#xf5;" 
d="M360 264q0 -164 -37 -216q-40 -56 -125 -56t-125 56q-37 52 -37 216t37 216q40 55 125 55t125 -55q37 -52 37 -216zM254 264q0 129 -15 155q-14 22 -41 22t-41 -22q-15 -26 -15 -155q0 -130 15 -156q13 -21 41 -21t41 21q15 26 15 156zM345 642q-46 -47 -90 -47
q-30 0 -61 17q-25 15 -44 15q-23 0 -46 -23l-46 46q47 47 89 47q33 0 62 -17q25 -15 44 -15q23 0 45 23z" />
    <glyph glyph-name="odieresis" unicode="&#xf6;" 
d="M360 264q0 -164 -37 -216q-40 -56 -125 -56t-125 56q-37 52 -37 216t37 216q40 55 125 55t125 -55q37 -52 37 -216zM254 264q0 129 -15 155q-14 22 -41 22t-41 -22q-15 -26 -15 -155q0 -130 15 -156q13 -21 41 -21t41 21q15 26 15 156zM336 597h-100v100h100v-100z
M160 597h-99v100h99v-100z" />
    <glyph glyph-name="divide" unicode="&#xf7;" horiz-adv-x="457" 
d="M413 229h-369v101h369v-101zM291 32h-124v123h124v-123zM291 403h-124v123h124v-123z" />
    <glyph glyph-name="oslash" unicode="&#xf8;" horiz-adv-x="394" 
d="M367 571l-41 -95q34 -50 34 -212q0 -164 -37 -216q-40 -56 -125 -56q-47 0 -77 15l-21 -51h-71l41 96q-34 50 -34 212q0 164 37 216q40 55 125 55q47 0 77 -15l21 51h71zM235 429q-14 16 -37 16q-28 0 -41 -22q-16 -27 -16 -159q0 -45 3 -60zM255 264q0 49 -3 59
l-91 -225q14 -16 37 -16q27 0 41 23q16 27 16 159z" />
    <glyph glyph-name="ugrave" unicode="&#xf9;" horiz-adv-x="417" 
d="M365 0h-101v40q-17 -23 -36 -33q-25 -15 -53 -15q-61 0 -96 41q-30 34 -30 114v380h106v-379q0 -30 14.5 -45.5t37.5 -15.5t37.5 15.5t14.5 45.5v379h106v-527zM254 587h-74l-88 139h90z" />
    <glyph glyph-name="uacute" unicode="&#xfa;" horiz-adv-x="417" 
d="M365 0h-101v40q-17 -23 -36 -33q-25 -15 -53 -15q-61 0 -96 41q-30 34 -30 114v380h106v-379q0 -30 14.5 -45.5t37.5 -15.5t37.5 15.5t14.5 45.5v379h106v-527zM325 726l-88 -139h-74l72 139h90z" />
    <glyph glyph-name="ucircumflex" unicode="&#xfb;" horiz-adv-x="417" 
d="M365 0h-101v40q-17 -23 -36 -33q-25 -15 -53 -15q-61 0 -96 41q-30 34 -30 114v380h106v-379q0 -30 14.5 -45.5t37.5 -15.5t37.5 15.5t14.5 45.5v379h106v-527zM348 587h-82l-59 82l-59 -82h-82l99 139h84z" />
    <glyph glyph-name="udieresis" unicode="&#xfc;" horiz-adv-x="417" 
d="M365 0h-101v40q-17 -23 -36 -33q-25 -15 -53 -15q-61 0 -96 41q-30 34 -30 114v380h106v-379q0 -30 14.5 -45.5t37.5 -15.5t37.5 15.5t14.5 45.5v379h106v-527zM345 597h-100v100h100v-100zM169 597h-99v100h99v-100z" />
    <glyph glyph-name="yacute" unicode="&#xfd;" horiz-adv-x="382" 
d="M377 527l-148 -594q-18 -73 -65.5 -95.5t-131.5 -22.5v94q28 1 43 3.5t30 15t21 36.5l9 37l-131 526h117l70 -359l69 359h117zM311 726l-88 -139h-74l72 139h90z" />
    <glyph glyph-name="thorn" unicode="&#xfe;" horiz-adv-x="411" 
d="M374 264q0 -99 -7 -150.5t-31 -80.5q-33 -41 -92 -41q-29 0 -54 14q-17 11 -31 28v-219h-106v897h102v-224q10 17 35 33q25 14 54 14q59 0 92 -41q24 -29 31 -80.5t7 -149.5zM268 264q0 134 -17 156q-16 21 -40 21q-21 0 -36 -15q-16 -16 -16 -49v-227q0 -31 16 -49
q14 -14 36 -14q25 0 40 20q17 22 17 157z" />
    <glyph glyph-name="ydieresis" unicode="&#xff;" horiz-adv-x="382" 
d="M377 527l-148 -594q-18 -73 -65.5 -95.5t-131.5 -22.5v94q28 1 43 3.5t30 15t21 36.5l9 37l-131 526h117l70 -359l69 359h117zM331 597h-100v100h100v-100zM155 597h-99v100h99v-100z" />
    <glyph glyph-name="Amacron" unicode="&#x100;" horiz-adv-x="468" 
d="M462 0h-117l-29 141h-165l-28 -141h-118l175 712h109zM295 242l-61 298l-61 -298h122zM357 776h-245v70h245v-70z" />
    <glyph glyph-name="amacron" unicode="&#x101;" horiz-adv-x="399" 
d="M350 0h-100v45q-18 -25 -32 -35q-26 -18 -60 -18q-61 0 -99 44q-32 38 -32 118q0 75 49 118q41 36 121 36h47v73q0 61 -51 61q-22 0 -35 -15q-16 -17 -16 -49h-106q0 69 45 114q43 43 111 43q74 0 112 -39q46 -46 46 -124v-372zM244 155v78h-35q-38 0 -55 -16
q-21 -19 -21 -59q0 -73 55 -73q24 0 40 19t16 51zM318 604h-246v71h246v-71z" />
    <glyph glyph-name="Abreve" unicode="&#x102;" horiz-adv-x="468" 
d="M462 0h-117l-29 141h-165l-28 -141h-118l175 712h109zM295 242l-61 298l-61 -298h122zM359 875q-2 -61 -37 -90t-88 -29t-87.5 29t-36.5 90h71q4 -46 53 -46q50 0 54 46h71z" />
    <glyph glyph-name="abreve" unicode="&#x103;" horiz-adv-x="399" 
d="M350 0h-100v45q-18 -25 -32 -35q-26 -18 -60 -18q-61 0 -99 44q-32 38 -32 118q0 75 49 118q41 36 121 36h47v73q0 61 -51 61q-22 0 -35 -15q-16 -17 -16 -49h-106q0 69 45 114q43 43 111 43q74 0 112 -39q46 -46 46 -124v-372zM244 155v78h-35q-38 0 -55 -16
q-21 -19 -21 -59q0 -73 55 -73q24 0 40 19t16 51zM320 703q-2 -61 -37 -90t-88 -29t-87.5 29t-37.5 90h72q4 -46 53 -46t53 46h72z" />
    <glyph glyph-name="Aogonek" unicode="&#x104;" horiz-adv-x="468" 
d="M462 0h-117l-29 141h-165l-28 -141h-118l175 712h109zM295 242l-61 298l-61 -298h122zM449 -40l-53 -154h-76l61 154h68z" />
    <glyph glyph-name="aogonek" unicode="&#x105;" horiz-adv-x="399" 
d="M350 0h-100v45q-18 -25 -32 -35q-26 -18 -60 -18q-61 0 -99 44q-32 38 -32 118q0 75 49 118q41 36 121 36h47v73q0 61 -51 61q-22 0 -35 -15q-16 -17 -16 -49h-106q0 69 45 114q43 43 111 43q74 0 112 -39q46 -46 46 -124v-372zM244 155v78h-35q-38 0 -55 -16
q-21 -19 -21 -59q0 -73 55 -73q24 0 40 19t16 51zM333 -40l-53 -154h-76l61 154h68z" />
    <glyph glyph-name="Cacute" unicode="&#x106;" horiz-adv-x="447" 
d="M413 189q-3 -101 -59 -152q-48 -45 -123 -45q-87 0 -138 61q-33 40 -42.5 102.5t-9.5 200.5t9.5 200.5t42.5 102.5q51 61 138 61q76 0 125 -46q54 -49 57 -150h-112q-2 48 -17 69q-16 26 -53 26q-36 0 -53 -27q-15 -24 -20 -76.5t-5 -159.5t5 -159.5t20 -76.5
q17 -27 53 -27q37 0 53 26q15 23 17 70h112zM347 899l-87 -139h-74l72 139h89z" />
    <glyph glyph-name="cacute" unicode="&#x107;" horiz-adv-x="384" 
d="M356 155q-5 -83 -46 -124q-39 -39 -112 -39q-85 0 -125 56q-37 50 -37 216q0 164 37 216q40 55 125 55q70 0 111 -38q42 -40 47 -124h-105q-2 34 -14 49q-13 19 -39 19q-27 0 -41 -22q-15 -26 -15 -155t15 -156q13 -21 41 -21q26 0 39 18q12 17 14 50h105zM316 726
l-88 -139h-74l72 139h90z" />
    <glyph glyph-name="Ccircumflex" unicode="&#x108;" horiz-adv-x="447" 
d="M413 189q-3 -101 -59 -152q-48 -45 -123 -45q-87 0 -138 61q-33 40 -42.5 102.5t-9.5 200.5t9.5 200.5t42.5 102.5q51 61 138 61q76 0 125 -46q54 -49 57 -150h-112q-2 48 -17 69q-16 26 -53 26q-36 0 -53 -27q-15 -24 -20 -76.5t-5 -159.5t5 -159.5t20 -76.5
q17 -27 53 -27q37 0 53 26q15 23 17 70h112zM372 760h-81l-60 82l-59 -82h-81l99 139h83z" />
    <glyph glyph-name="ccircumflex" unicode="&#x109;" horiz-adv-x="384" 
d="M356 155q-5 -83 -46 -124q-39 -39 -112 -39q-85 0 -125 56q-37 50 -37 216q0 164 37 216q40 55 125 55q70 0 111 -38q42 -40 47 -124h-105q-2 34 -14 49q-13 19 -39 19q-27 0 -41 -22q-15 -26 -15 -155t15 -156q13 -21 41 -21q26 0 39 18q12 17 14 50h105zM339 587h-82
l-59 82l-59 -82h-82l99 139h84z" />
    <glyph glyph-name="Cdotaccent" unicode="&#x10a;" horiz-adv-x="447" 
d="M413 189q-3 -101 -59 -152q-48 -45 -123 -45q-87 0 -138 61q-33 40 -42.5 102.5t-9.5 200.5t9.5 200.5t42.5 102.5q51 61 138 61q76 0 125 -46q54 -49 57 -150h-112q-2 48 -17 69q-16 26 -53 26q-36 0 -53 -27q-15 -24 -20 -76.5t-5 -159.5t5 -159.5t20 -76.5
q17 -27 53 -27q37 0 53 26q15 23 17 70h112zM281 770h-99v100h99v-100z" />
    <glyph glyph-name="cdotaccent" unicode="&#x10b;" horiz-adv-x="384" 
d="M356 155q-5 -83 -46 -124q-39 -39 -112 -39q-85 0 -125 56q-37 50 -37 216q0 164 37 216q40 55 125 55q70 0 111 -38q42 -40 47 -124h-105q-2 34 -14 49q-13 19 -39 19q-27 0 -41 -22q-15 -26 -15 -155t15 -156q13 -21 41 -21q26 0 39 18q12 17 14 50h105zM248 598h-100
v100h100v-100z" />
    <glyph glyph-name="Ccaron" unicode="&#x10c;" horiz-adv-x="447" 
d="M413 189q-3 -101 -59 -152q-48 -45 -123 -45q-87 0 -138 61q-33 40 -42.5 102.5t-9.5 200.5t9.5 200.5t42.5 102.5q51 61 138 61q76 0 125 -46q54 -49 57 -150h-112q-2 48 -17 69q-16 26 -53 26q-36 0 -53 -27q-15 -24 -20 -76.5t-5 -159.5t5 -159.5t20 -76.5
q17 -27 53 -27q37 0 53 26q15 23 17 70h112zM372 897l-99 -140h-83l-99 140h81l59 -82l60 82h81z" />
    <glyph glyph-name="ccaron" unicode="&#x10d;" horiz-adv-x="384" 
d="M356 155q-5 -83 -46 -124q-39 -39 -112 -39q-85 0 -125 56q-37 50 -37 216q0 164 37 216q40 55 125 55q70 0 111 -38q42 -40 47 -124h-105q-2 34 -14 49q-13 19 -39 19q-27 0 -41 -22q-15 -26 -15 -155t15 -156q13 -21 41 -21q26 0 39 18q12 17 14 50h105zM339 724
l-99 -140h-84l-99 140h82l59 -82l59 82h82z" />
    <glyph glyph-name="Dcaron" unicode="&#x10e;" horiz-adv-x="472" 
d="M431 357q0 -136 -9 -198.5t-43 -99.5q-52 -59 -138 -59h-181v712h181q86 0 138 -59q34 -37 43 -98.5t9 -197.5zM319 357q0 104 -4.5 153t-19.5 72q-19 29 -57 29h-66v-510h66q38 0 57 29q15 23 19.5 72.5t4.5 154.5zM375 897l-99 -140h-83l-99 140h81l59 -82l60 82h81z
" />
    <glyph glyph-name="dcaron" unicode="&#x10f;" horiz-adv-x="408" 
d="M356 0h-102v40q-8 -18 -35 -33q-23 -15 -53 -15q-59 0 -93 41q-24 29 -30.5 80t-6.5 151t6.5 150.5t30.5 79.5q34 41 93 41q30 0 53 -14q15 -8 31 -28v219h106v-712zM250 150v227q0 33 -16 49q-15 15 -36 15q-24 0 -39 -21q-17 -22 -17 -156q0 -135 17 -157
q14 -20 39 -20q22 0 36 14q16 16 16 49zM500 741l-36 -154h-67l24 154h79z" />
    <glyph glyph-name="Dcroat" unicode="&#x110;" horiz-adv-x="489" 
d="M448 357q0 -136 -9 -198.5t-43 -99.5q-52 -59 -138 -59h-181v314h-51v88h51v310h181q86 0 138 -59q34 -37 43 -98.5t9 -197.5zM336 357q0 104 -4.5 153t-19.5 72q-19 29 -57 29h-66v-209h70v-88h-70v-213h66q38 0 57 29q15 23 19.5 72.5t4.5 154.5z" />
    <glyph glyph-name="dcroat" unicode="&#x111;" horiz-adv-x="425" 
d="M356 0h-102v40q-8 -18 -35 -33q-23 -15 -53 -15q-59 0 -93 41q-24 29 -30.5 80t-6.5 151t6.5 150.5t30.5 79.5q34 41 93 41q30 0 53 -14q15 -8 31 -28v87h-86v67h86v65h106v-65h49v-67h-49v-580zM250 150v227q0 34 -16 49q-14 15 -36 15q-24 0 -39 -21q-17 -22 -17 -156
q0 -135 17 -157q14 -20 39 -20q22 0 36 14q16 16 16 49z" />
    <glyph glyph-name="Emacron" unicode="&#x112;" 
d="M359 0h-299v712h299v-101h-187v-202h161v-101h-161v-207h187v-101zM336 776h-245v70h245v-70z" />
    <glyph glyph-name="emacron" unicode="&#x113;" horiz-adv-x="394" 
d="M360 233h-218q0 -100 16 -125q14 -21 41 -21q26 0 40 20q13 16 13 48h106q-3 -77 -45 -121q-39 -42 -114 -42q-72 0 -114 43q-30 31 -39.5 87t-9.5 142t9.5 142t39.5 87q41 42 113 42q71 0 113 -42q29 -29 39 -91t10 -169zM254 311q0 87 -15 109q-15 21 -41 21t-41 -21
q-15 -22 -15 -109h112zM321 604h-246v71h246v-71z" />
    <glyph glyph-name="Ebreve" unicode="&#x114;" 
d="M359 0h-299v712h299v-101h-187v-202h161v-101h-161v-207h187v-101zM338 875q-2 -61 -37 -90t-88 -29t-87.5 29t-36.5 90h71q4 -46 53 -46q50 0 54 46h71z" />
    <glyph glyph-name="ebreve" unicode="&#x115;" horiz-adv-x="394" 
d="M360 233h-218q0 -100 16 -125q14 -21 41 -21q26 0 40 20q13 16 13 48h106q-3 -77 -45 -121q-39 -42 -114 -42q-72 0 -114 43q-30 31 -39.5 87t-9.5 142t9.5 142t39.5 87q41 42 113 42q71 0 113 -42q29 -29 39 -91t10 -169zM254 311q0 87 -15 109q-15 21 -41 21t-41 -21
q-15 -22 -15 -109h112zM323 703q-2 -61 -37 -90t-88 -29t-87.5 29t-37.5 90h72q4 -46 53 -46t53 46h72z" />
    <glyph glyph-name="Edotaccent" unicode="&#x116;" 
d="M359 0h-299v712h299v-101h-187v-202h161v-101h-161v-207h187v-101zM263 770h-99v100h99v-100z" />
    <glyph glyph-name="edotaccent" unicode="&#x117;" horiz-adv-x="394" 
d="M360 233h-218q0 -100 16 -125q14 -21 41 -21q26 0 40 20q13 16 13 48h106q-3 -77 -45 -121q-39 -42 -114 -42q-72 0 -114 43q-30 31 -39.5 87t-9.5 142t9.5 142t39.5 87q41 42 113 42q71 0 113 -42q29 -29 39 -91t10 -169zM254 311q0 87 -15 109q-15 21 -41 21t-41 -21
q-15 -22 -15 -109h112zM248 598h-100v100h100v-100z" />
    <glyph glyph-name="Eogonek" unicode="&#x118;" 
d="M359 0h-299v712h299v-101h-187v-202h161v-101h-161v-207h187v-101zM353 -40l-53 -154h-76l61 154h68z" />
    <glyph glyph-name="eogonek" unicode="&#x119;" horiz-adv-x="394" 
d="M360 233h-218q0 -100 16 -125q14 -21 41 -21q26 0 40 20q13 16 13 48h106q-3 -77 -45 -121q-39 -42 -114 -42q-72 0 -114 43q-30 31 -39.5 87t-9.5 142t9.5 142t39.5 87q41 42 113 42q71 0 113 -42q29 -29 39 -91t10 -169zM254 311q0 87 -15 109q-15 21 -41 21t-41 -21
q-15 -22 -15 -109h112zM285 -40l-53 -154h-76l61 154h68z" />
    <glyph glyph-name="Ecaron" unicode="&#x11a;" 
d="M359 0h-299v712h299v-101h-187v-202h161v-101h-161v-207h187v-101zM354 897l-99 -140h-83l-99 140h81l59 -82l60 82h81z" />
    <glyph glyph-name="ecaron" unicode="&#x11b;" horiz-adv-x="394" 
d="M360 233h-218q0 -100 16 -125q14 -21 41 -21q26 0 40 20q13 16 13 48h106q-3 -77 -45 -121q-39 -42 -114 -42q-72 0 -114 43q-30 31 -39.5 87t-9.5 142t9.5 142t39.5 87q41 42 113 42q71 0 113 -42q29 -29 39 -91t10 -169zM254 311q0 87 -15 109q-15 21 -41 21t-41 -21
q-15 -22 -15 -109h112zM339 724l-99 -140h-84l-99 140h82l59 -82l59 82h82z" />
    <glyph glyph-name="Gcircumflex" unicode="&#x11c;" horiz-adv-x="455" 
d="M413 190q0 -95 -49.5 -146.5t-132.5 -51.5q-87 0 -138 61q-33 40 -42.5 102.5t-9.5 200.5t9.5 200.5t42.5 102.5q51 61 138 61q79 0 127 -48q52 -53 55 -149h-112q-2 96 -70 96q-36 0 -53 -27q-15 -24 -20 -76.5t-5 -159.5t5 -159.5t20 -76.5q17 -27 53 -27
q35 0 52.5 25.5t17.5 65.5v111h-70v92h182v-197zM372 760h-81l-60 82l-59 -82h-81l99 139h83z" />
    <glyph glyph-name="gcircumflex" unicode="&#x11d;" horiz-adv-x="408" 
d="M356 527v-537q0 -92 -45 -137q-43 -43 -114 -43q-73 0 -114 41q-44 43 -44 116h105q0 -32 14 -50q13 -16 39 -16q24 0 38 17q15 19 15 65v91q-13 -17 -29 -28q-21 -14 -53 -14q-55 0 -90 39q-25 29 -33.5 76t-8.5 137q0 89 8.5 136t33.5 76q35 39 90 39q34 0 55 -14
q18 -12 31 -28v34h102zM250 187v190q0 33 -16 49q-15 15 -36 15q-24 0 -39 -21q-17 -22 -17 -138t17 -138q17 -20 39 -20t36 14q16 16 16 49zM339 587h-82l-59 82l-59 -82h-82l99 139h84z" />
    <glyph glyph-name="Gbreve" unicode="&#x11e;" horiz-adv-x="455" 
d="M413 190q0 -95 -49.5 -146.5t-132.5 -51.5q-87 0 -138 61q-33 40 -42.5 102.5t-9.5 200.5t9.5 200.5t42.5 102.5q51 61 138 61q79 0 127 -48q52 -53 55 -149h-112q-2 96 -70 96q-36 0 -53 -27q-15 -24 -20 -76.5t-5 -159.5t5 -159.5t20 -76.5q17 -27 53 -27
q35 0 52.5 25.5t17.5 65.5v111h-70v92h182v-197zM356 875q-2 -61 -37 -90t-88 -29t-87.5 29t-36.5 90h71q4 -46 53 -46q50 0 54 46h71z" />
    <glyph glyph-name="gbreve" unicode="&#x11f;" horiz-adv-x="408" 
d="M356 527v-537q0 -92 -45 -137q-43 -43 -114 -43q-73 0 -114 41q-44 43 -44 116h105q0 -32 14 -50q13 -16 39 -16q24 0 38 17q15 19 15 65v91q-13 -17 -29 -28q-21 -14 -53 -14q-55 0 -90 39q-25 29 -33.5 76t-8.5 137q0 89 8.5 136t33.5 76q35 39 90 39q34 0 55 -14
q18 -12 31 -28v34h102zM250 187v190q0 33 -16 49q-15 15 -36 15q-24 0 -39 -21q-17 -22 -17 -138t17 -138q17 -20 39 -20t36 14q16 16 16 49zM323 703q-2 -61 -37 -90t-88 -29t-87.5 29t-37.5 90h72q4 -46 53 -46t53 46h72z" />
    <glyph glyph-name="Gdotaccent" unicode="&#x120;" horiz-adv-x="455" 
d="M413 190q0 -95 -49.5 -146.5t-132.5 -51.5q-87 0 -138 61q-33 40 -42.5 102.5t-9.5 200.5t9.5 200.5t42.5 102.5q51 61 138 61q79 0 127 -48q52 -53 55 -149h-112q-2 96 -70 96q-36 0 -53 -27q-15 -24 -20 -76.5t-5 -159.5t5 -159.5t20 -76.5q17 -27 53 -27
q35 0 52.5 25.5t17.5 65.5v111h-70v92h182v-197zM281 770h-99v100h99v-100z" />
    <glyph glyph-name="gdotaccent" unicode="&#x121;" horiz-adv-x="408" 
d="M356 527v-537q0 -92 -45 -137q-43 -43 -114 -43q-73 0 -114 41q-44 43 -44 116h105q0 -32 14 -50q13 -16 39 -16q24 0 38 17q15 19 15 65v91q-13 -17 -29 -28q-21 -14 -53 -14q-55 0 -90 39q-25 29 -33.5 76t-8.5 137q0 89 8.5 136t33.5 76q35 39 90 39q34 0 55 -14
q18 -12 31 -28v34h102zM250 187v190q0 33 -16 49q-15 15 -36 15q-24 0 -39 -21q-17 -22 -17 -138t17 -138q17 -20 39 -20t36 14q16 16 16 49zM248 598h-100v100h100v-100z" />
    <glyph glyph-name="Gcommaaccent" unicode="&#x122;" horiz-adv-x="455" 
d="M413 190q0 -95 -49.5 -146.5t-132.5 -51.5q-87 0 -138 61q-33 40 -42.5 102.5t-9.5 200.5t9.5 200.5t42.5 102.5q51 61 138 61q79 0 127 -48q52 -53 55 -149h-112q-2 96 -70 96q-36 0 -53 -27q-15 -24 -20 -76.5t-5 -159.5t5 -159.5t20 -76.5q17 -27 53 -27
q35 0 52.5 25.5t17.5 65.5v111h-70v92h182v-197zM267 -40l-53 -154h-76l61 154h68z" />
    <glyph glyph-name="gcommaaccent" unicode="&#x123;" horiz-adv-x="408" 
d="M356 527v-537q0 -92 -45 -137q-43 -43 -114 -43q-73 0 -114 41q-44 43 -44 116h105q0 -32 14 -50q13 -16 39 -16q24 0 38 17q15 19 15 65v91q-13 -17 -29 -28q-21 -14 -53 -14q-55 0 -90 39q-25 29 -33.5 76t-8.5 137q0 89 8.5 136t33.5 76q35 39 90 39q34 0 55 -14
q18 -12 31 -28v34h102zM250 187v190q0 33 -16 49q-15 15 -36 15q-24 0 -39 -21q-17 -22 -17 -138t17 -138q17 -20 39 -20t36 14q16 16 16 49zM168 587l53 154h76l-61 -154h-68z" />
    <glyph glyph-name="Hcircumflex" unicode="&#x124;" horiz-adv-x="483" 
d="M423 0h-112v311h-139v-311h-112v712h112v-300h139v300h112v-712zM382 760h-81l-60 82l-59 -82h-81l99 139h83z" />
    <glyph glyph-name="hcircumflex" unicode="&#x125;" horiz-adv-x="417" 
d="M368 0h-106v379q0 30 -14.5 45.5t-37.5 15.5t-37.5 -15.5t-14.5 -45.5v-379h-106v712h106v-219q13 18 31 28q23 14 53 14q61 0 96 -41q30 -34 30 -114v-380zM248 759h-82l-59 82l-59 -82h-82l99 139h84z" />
    <glyph glyph-name="Hbar" unicode="&#x126;" horiz-adv-x="516" 
d="M490 517h-50v-517h-113v311h-139v-311h-112v517h-50v88h50v107h112v-107h139v107h113v-107h50v-88zM327 413v104h-139v-104h139z" />
    <glyph glyph-name="hbar" unicode="&#x127;" horiz-adv-x="435" 
d="M386 0h-106v379q0 30 -14.5 45.5t-37.5 15.5t-37.5 -15.5t-14.5 -45.5v-379h-106v580h-50v67h50v65h106v-65h85v-67h-85v-87q13 18 31 28q23 14 53 14q61 0 96 -41q30 -34 30 -114v-380z" />
    <glyph glyph-name="Itilde" unicode="&#x128;" horiz-adv-x="232" 
d="M172 0h-112v712h112v-712zM260 814q-46 -46 -90 -46q-30 0 -61 17q-25 15 -44 15q-23 0 -46 -23l-46 46q47 47 89 47q33 0 62 -17q25 -15 44 -15q23 0 45 23z" />
    <glyph glyph-name="itilde" unicode="&#x129;" horiz-adv-x="210" 
d="M158 0h-106v513h106v-513zM253 642q-46 -47 -90 -47q-30 0 -61 17q-25 15 -44 15q-23 0 -46 -23l-46 46q47 47 89 47q33 0 62 -17q25 -15 44 -15q23 0 45 23z" />
    <glyph glyph-name="Imacron" unicode="&#x12a;" horiz-adv-x="232" 
d="M172 0h-112v712h112v-712zM239 776h-245v70h245v-70z" />
    <glyph glyph-name="imacron" unicode="&#x12b;" horiz-adv-x="210" 
d="M158 0h-106v513h106v-513zM229 604h-246v71h246v-71z" />
    <glyph glyph-name="Ibreve" unicode="&#x12c;" horiz-adv-x="232" 
d="M172 0h-112v712h112v-712zM241 875q-2 -61 -37 -90t-88 -29t-87.5 29t-36.5 90h71q4 -46 53 -46q50 0 54 46h71z" />
    <glyph glyph-name="ibreve" unicode="&#x12d;" horiz-adv-x="210" 
d="M158 0h-106v513h106v-513zM230 703q-2 -61 -37 -90t-88 -29t-87.5 29t-37.5 90h72q4 -46 53 -46t53 46h72z" />
    <glyph glyph-name="Iogonek" unicode="&#x12e;" horiz-adv-x="232" 
d="M172 0h-112v712h112v-712zM159 -40l-53 -154h-76l61 154h68z" />
    <glyph glyph-name="iogonek" unicode="&#x12f;" horiz-adv-x="210" 
d="M158 0h-106v513h106v-513zM163 594h-117v117h117v-117zM149 -40l-53 -154h-76l61 154h68z" />
    <glyph glyph-name="Idotaccent" unicode="&#x130;" horiz-adv-x="232" 
d="M172 0h-112v712h112v-712zM166 770h-99v100h99v-100z" />
    <glyph glyph-name="dotlessi" unicode="&#x131;" horiz-adv-x="210" 
d="M158 0h-106v513h106v-513z" />
    <glyph glyph-name="IJ" unicode="&#x132;" horiz-adv-x="621" 
d="M172 0h-112v712h112v-712zM567 186q0 -90 -49 -140q-51 -54 -143 -54q-86 0 -140 57l78 75q22 -31 62 -31q36 0 58 24.5t22 68.5v526h112v-526z" />
    <glyph glyph-name="ij" unicode="&#x133;" horiz-adv-x="420" 
d="M158 0h-106v513h106v-513zM163 594h-117v117h117v-117zM368 -25q0 -86 -54 -127q-43 -33 -124 -33v95q37 0 54.5 16t17.5 55v532h106v-538zM373 594h-117v117h117v-117z" />
    <glyph glyph-name="Jcircumflex" unicode="&#x134;" horiz-adv-x="389" 
d="M335 186q0 -90 -49 -140q-51 -54 -143 -54q-86 0 -140 57l78 75q22 -31 62 -31q36 0 58 24.5t22 68.5v526h112v-526zM420 760h-81l-60 82l-59 -82h-81l99 139h83z" />
    <glyph glyph-name="jcircumflex" unicode="&#x135;" horiz-adv-x="210" 
d="M158 -25q0 -86 -54 -127q-43 -33 -124 -33v95q37 0 54.5 16t17.5 55v532h106v-538zM246 587h-82l-59 82l-59 -82h-82l99 139h84z" />
    <glyph glyph-name="Kcommaaccent" unicode="&#x136;" horiz-adv-x="469" 
d="M462 0h-121l-115 293l-54 -110v-183h-112v712h112v-335l155 335h113l-143 -295zM283 -40l-53 -154h-76l61 154h68z" />
    <glyph glyph-name="kcommaaccent" unicode="&#x137;" horiz-adv-x="416" 
d="M409 0h-117l-89 222l-45 -71v-151h-106v712h106v-410l133 225h111l-131 -209zM256 -40l-53 -154h-76l61 154h68z" />
    <glyph glyph-name="kgreenlandic" unicode="&#x138;" horiz-adv-x="416" 
d="M409 0h-117l-89 222l-45 -71v-151h-106v527h106v-225l133 225h111l-131 -209z" />
    <glyph glyph-name="Lacute" unicode="&#x139;" horiz-adv-x="383" 
d="M359 0h-299v712h112v-611h187v-101zM232 899l-87 -139h-74l72 139h89z" />
    <glyph glyph-name="lacute" unicode="&#x13a;" horiz-adv-x="244" 
d="M227 0q-84 0 -125 32q-53 40 -53 128v552h106v-546q0 -71 72 -71v-95zM219 900l-88 -139h-74l72 139h90z" />
    <glyph glyph-name="Lcommaaccent" unicode="&#x13b;" horiz-adv-x="383" 
d="M359 0h-299v712h112v-611h187v-101zM255 -40l-53 -154h-76l61 154h68z" />
    <glyph glyph-name="lcommaaccent" unicode="&#x13c;" horiz-adv-x="244" 
d="M227 0q-84 0 -125 32q-53 40 -53 128v552h106v-546q0 -71 72 -71v-95zM190 -40l-53 -154h-76l61 154h68z" />
    <glyph glyph-name="Lcaron" unicode="&#x13d;" horiz-adv-x="383" 
d="M359 0h-299v712h112v-611h187v-101zM335 712l-36 -154h-67l24 154h79z" />
    <glyph glyph-name="lcaron" unicode="&#x13e;" horiz-adv-x="244" 
d="M227 0q-84 0 -125 32q-53 40 -53 128v552h106v-546q0 -71 72 -71v-95zM298 741l-36 -154h-67l24 154h79z" />
    <glyph glyph-name="Ldot" unicode="&#x13f;" horiz-adv-x="383" 
d="M359 0h-299v712h112v-611h187v-101zM356 308h-100v100h100v-100z" />
    <glyph glyph-name="ldot" unicode="&#x140;" horiz-adv-x="304" 
d="M227 0q-84 0 -125 32q-53 40 -53 128v552h106v-546q0 -71 72 -71v-95zM305 250h-100v100h100v-100z" />
    <glyph glyph-name="Lslash" unicode="&#x141;" horiz-adv-x="395" 
d="M372 0h-299v257l-47 -40v106l47 39v350h112v-260l93 78v-105l-93 -79v-245h187v-101z" />
    <glyph glyph-name="lslash" unicode="&#x142;" horiz-adv-x="272" 
d="M252 0q-83 0 -124 32q-54 41 -54 128v138l-52 -47v100l52 46v315h106v-229l53 47v-99l-53 -47v-218q0 -71 72 -71v-95z" />
    <glyph glyph-name="Nacute" unicode="&#x143;" horiz-adv-x="499" 
d="M439 0h-99l-168 423v-423h-112v712h100l167 -423v423h112v-712zM365 899l-87 -139h-74l72 139h89z" />
    <glyph glyph-name="nacute" unicode="&#x144;" horiz-adv-x="417" 
d="M368 0h-106v379q0 30 -14.5 45.5t-37.5 15.5t-37.5 -15.5t-14.5 -45.5v-379h-106v527h102v-39q18 24 35 33q23 14 53 14q61 0 96 -41q30 -34 30 -114v-380zM329 726l-88 -139h-74l72 139h90z" />
    <glyph glyph-name="Ncommaaccent" unicode="&#x145;" horiz-adv-x="499" 
d="M439 0h-99l-168 423v-423h-112v712h100l167 -423v423h112v-712zM283 -40l-53 -154h-76l61 154h68z" />
    <glyph glyph-name="ncommaaccent" unicode="&#x146;" horiz-adv-x="417" 
d="M368 0h-106v379q0 30 -14.5 45.5t-37.5 15.5t-37.5 -15.5t-14.5 -45.5v-379h-106v527h102v-39q18 24 35 33q23 14 53 14q61 0 96 -41q30 -34 30 -114v-380zM246 -40l-53 -154h-76l61 154h68z" />
    <glyph glyph-name="Ncaron" unicode="&#x147;" horiz-adv-x="499" 
d="M439 0h-99l-168 423v-423h-112v712h100l167 -423v423h112v-712zM390 897l-99 -140h-83l-99 140h81l59 -82l60 82h81z" />
    <glyph glyph-name="ncaron" unicode="&#x148;" horiz-adv-x="417" 
d="M368 0h-106v379q0 30 -14.5 45.5t-37.5 15.5t-37.5 -15.5t-14.5 -45.5v-379h-106v527h102v-39q18 24 35 33q23 14 53 14q61 0 96 -41q30 -34 30 -114v-380zM352 724l-99 -140h-84l-99 140h82l59 -82l59 82h82z" />
    <glyph glyph-name="napostrophe" unicode="&#x149;" horiz-adv-x="453" 
d="M404 0h-106v379q0 30 -14.5 45.5t-37.5 15.5t-37.5 -15.5t-14.5 -45.5v-379h-106v527h102v-39q18 24 35 33q23 14 53 14q61 0 96 -41q30 -34 30 -114v-380zM79 604l-79 -56v193h79v-137z" />
    <glyph glyph-name="Eng" unicode="&#x14a;" horiz-adv-x="499" 
d="M261 -194v95q66 0 66 71v61l-155 390v-423h-112v712h100l167 -423v423h112v-746q0 -86 -54 -127q-43 -33 -124 -33z" />
    <glyph glyph-name="eng" unicode="&#x14b;" horiz-adv-x="417" 
d="M368 -34q0 -86 -54 -127q-43 -33 -124 -33v95q37 0 54.5 16t17.5 55v407q0 30 -14.5 45.5t-37.5 15.5t-37.5 -15.5t-14.5 -45.5v-379h-106v527h102v-39q18 24 35 33q23 14 53 14q61 0 96 -41q30 -34 30 -114v-414z" />
    <glyph glyph-name="Omacron" unicode="&#x14c;" horiz-adv-x="462" 
d="M421 356q0 -139 -9 -201.5t-43 -101.5q-51 -61 -138 -61t-138 61q-33 40 -42.5 102.5t-9.5 200.5t9.5 200.5t42.5 102.5q51 61 138 61t138 -61q34 -39 43 -101.5t9 -201.5zM309 356q0 107 -4.5 159.5t-19.5 76.5q-17 27 -54 27q-36 0 -53 -27q-25 -40 -25 -236t25 -236
q17 -27 53 -27q37 0 54 27q15 24 19.5 76.5t4.5 159.5zM354 776h-245v70h245v-70z" />
    <glyph glyph-name="omacron" unicode="&#x14d;" 
d="M360 264q0 -164 -37 -216q-40 -56 -125 -56t-125 56q-37 52 -37 216t37 216q40 55 125 55t125 -55q37 -52 37 -216zM254 264q0 129 -15 155q-14 22 -41 22t-41 -22q-15 -26 -15 -155q0 -130 15 -156q13 -21 41 -21t41 21q15 26 15 156zM321 604h-246v71h246v-71z" />
    <glyph glyph-name="Obreve" unicode="&#x14e;" horiz-adv-x="462" 
d="M421 356q0 -139 -9 -201.5t-43 -101.5q-51 -61 -138 -61t-138 61q-33 40 -42.5 102.5t-9.5 200.5t9.5 200.5t42.5 102.5q51 61 138 61t138 -61q34 -39 43 -101.5t9 -201.5zM309 356q0 107 -4.5 159.5t-19.5 76.5q-17 27 -54 27q-36 0 -53 -27q-25 -40 -25 -236t25 -236
q17 -27 53 -27q37 0 54 27q15 24 19.5 76.5t4.5 159.5zM356 875q-2 -61 -37 -90t-88 -29t-87.5 29t-36.5 90h71q4 -46 53 -46q50 0 54 46h71z" />
    <glyph glyph-name="obreve" unicode="&#x14f;" 
d="M360 264q0 -164 -37 -216q-40 -56 -125 -56t-125 56q-37 52 -37 216t37 216q40 55 125 55t125 -55q37 -52 37 -216zM254 264q0 129 -15 155q-14 22 -41 22t-41 -22q-15 -26 -15 -155q0 -130 15 -156q13 -21 41 -21t41 21q15 26 15 156zM323 703q-2 -61 -37 -90t-88 -29
t-87.5 29t-37.5 90h72q4 -46 53 -46t53 46h72z" />
    <glyph glyph-name="Ohungarumlaut" unicode="&#x150;" horiz-adv-x="462" 
d="M421 356q0 -139 -9 -201.5t-43 -101.5q-51 -61 -138 -61t-138 61q-33 40 -42.5 102.5t-9.5 200.5t9.5 200.5t42.5 102.5q51 61 138 61t138 -61q34 -39 43 -101.5t9 -201.5zM309 356q0 107 -4.5 159.5t-19.5 76.5q-17 27 -54 27q-36 0 -53 -27q-25 -40 -25 -236t25 -236
q17 -27 53 -27q37 0 54 27q15 24 19.5 76.5t4.5 159.5zM256 900l-68 -140h-69l47 140h90zM404 900l-67 -140h-68l46 140h89z" />
    <glyph glyph-name="ohungarumlaut" unicode="&#x151;" 
d="M360 264q0 -164 -37 -216q-40 -56 -125 -56t-125 56q-37 52 -37 216t37 216q40 55 125 55t125 -55q37 -52 37 -216zM254 264q0 129 -15 155q-14 22 -41 22t-41 -22q-15 -26 -15 -155q0 -130 15 -156q13 -21 41 -21t41 21q15 26 15 156zM222 727l-67 -140h-69l47 140h89z
M371 727l-67 -140h-69l46 140h90z" />
    <glyph glyph-name="OE" unicode="&#x152;" horiz-adv-x="642" 
d="M604 0h-288v27q-35 -35 -90 -35q-86 0 -133 60q-31 40 -41.5 112.5t-10.5 191.5q0 123 10 194t42 110q48 60 133 60q57 0 90 -35v27h288v-101h-187v-202h161v-101h-161v-207h187v-101zM309 356q0 107 -4.5 159.5t-19.5 76.5q-17 27 -54 27q-36 0 -53 -27
q-25 -40 -25 -236t25 -236q17 -27 53 -27q37 0 54 27q15 24 19.5 76.5t4.5 159.5z" />
    <glyph glyph-name="oe" unicode="&#x153;" horiz-adv-x="613" 
d="M578 233h-218q0 -100 16 -125q14 -21 41 -21t41 20q12 16 12 48h106q-3 -77 -45 -121q-38 -42 -114 -42q-53 0 -91 31q-7 5 -17 19q-7 -12 -18 -20q-38 -30 -93 -30q-85 0 -125 56q-37 50 -37 216q0 164 37 216q40 55 125 55q58 0 95 -31q9 -7 16 -19q6 11 18 20
q39 30 89 30q71 0 113 -42q29 -29 39 -91t10 -169zM254 264q0 129 -15 155q-14 22 -41 22t-41 -22q-15 -26 -15 -155t15 -156q13 -21 41 -21t41 21q15 27 15 156zM472 311q0 87 -15 109q-15 21 -41 21q-27 0 -40 -21q-16 -21 -16 -109h112z" />
    <glyph glyph-name="Racute" unicode="&#x154;" horiz-adv-x="478" 
d="M445 0h-117l-93 292h-63v-292h-112v712h180q97 0 139.5 -49.5t42.5 -160.5q0 -71 -18.5 -116t-64.5 -70zM310 502q0 52 -14 80.5t-55 28.5h-69v-218h69q41 0 55 28.5t14 80.5zM345 899l-87 -139h-74l72 139h89z" />
    <glyph glyph-name="racute" unicode="&#x155;" horiz-adv-x="299" 
d="M282 432h-36q-38 0 -63 -24.5t-25 -66.5v-341h-106v527h102v-56q16 24 46 42q36 22 82 22v-103zM271 726l-88 -139h-74l72 139h90z" />
    <glyph glyph-name="Rcommaaccent" unicode="&#x156;" horiz-adv-x="478" 
d="M445 0h-117l-93 292h-63v-292h-112v712h180q97 0 139.5 -49.5t42.5 -160.5q0 -71 -18.5 -116t-64.5 -70zM310 502q0 52 -14 80.5t-55 28.5h-69v-218h69q41 0 55 28.5t14 80.5zM282 -40l-53 -154h-76l61 154h68z" />
    <glyph glyph-name="rcommaaccent" unicode="&#x157;" horiz-adv-x="299" 
d="M282 432h-36q-38 0 -63 -24.5t-25 -66.5v-341h-106v527h102v-56q16 24 46 42q36 22 82 22v-103zM139 -40l-53 -154h-76l61 154h68z" />
    <glyph glyph-name="Rcaron" unicode="&#x158;" horiz-adv-x="478" 
d="M445 0h-117l-93 292h-63v-292h-112v712h180q97 0 139.5 -49.5t42.5 -160.5q0 -71 -18.5 -116t-64.5 -70zM310 502q0 52 -14 80.5t-55 28.5h-69v-218h69q41 0 55 28.5t14 80.5zM370 897l-99 -140h-83l-99 140h81l59 -82l60 82h81z" />
    <glyph glyph-name="rcaron" unicode="&#x159;" horiz-adv-x="299" 
d="M282 432h-36q-38 0 -63 -24.5t-25 -66.5v-341h-106v527h102v-56q16 24 46 42q36 22 82 22v-103zM296 724l-99 -140h-84l-99 140h82l59 -82l59 82h82z" />
    <glyph glyph-name="Sacute" unicode="&#x15a;" horiz-adv-x="442" 
d="M404 197q0 -112 -46 -157q-49 -47 -139 -47q-91 0 -138 47q-46 46 -46 153h112q0 -57 20 -80q17 -19 52 -19q37 0 54 20q19 22 19 79t-12.5 78.5t-54.5 38.5l-85 35q-55 23 -77 60.5t-22 118.5q0 99 58 151q49 43 122 43q83 0 128 -43q50 -49 50 -155h-112q0 54 -17 76
q-16 21 -50 21q-30 0 -48 -20q-19 -22 -19 -70q0 -44 11 -62.5t48 -33.5l84 -34q63 -26 85.5 -68t22.5 -132zM343 899l-87 -139h-74l72 139h89z" />
    <glyph glyph-name="sacute" unicode="&#x15b;" horiz-adv-x="381" 
d="M352 152q0 -70 -47 -117q-43 -43 -115 -43q-75 0 -116 43q-47 49 -47 119h105q0 -32 18 -50q15 -16 40 -16t41 15q15 13 15 42q0 23 -11 39q-12 18 -41 30l-70 31q-54 24 -77 61q-17 27 -17 72q0 65 46 113q44 44 114 44q69 0 111 -40q45 -43 45 -117h-104q0 32 -15 48
t-37 16q-24 0 -39 -15t-15 -40q0 -19 8 -31q11 -18 39 -30l70 -30q54 -24 77 -58q22 -31 22 -86zM310 726l-88 -139h-74l72 139h90z" />
    <glyph glyph-name="Scircumflex" unicode="&#x15c;" horiz-adv-x="442" 
d="M404 197q0 -112 -46 -157q-49 -47 -139 -47q-91 0 -138 47q-46 46 -46 153h112q0 -57 20 -80q17 -19 52 -19q37 0 54 20q19 22 19 79t-12.5 78.5t-54.5 38.5l-85 35q-55 23 -77 60.5t-22 118.5q0 99 58 151q49 43 122 43q83 0 128 -43q50 -49 50 -155h-112q0 54 -17 76
q-16 21 -50 21q-30 0 -48 -20q-19 -22 -19 -70q0 -44 11 -62.5t48 -33.5l84 -34q63 -26 85.5 -68t22.5 -132zM369 760h-81l-60 82l-59 -82h-81l99 139h83z" />
    <glyph glyph-name="scircumflex" unicode="&#x15d;" horiz-adv-x="381" 
d="M352 152q0 -70 -47 -117q-43 -43 -115 -43q-75 0 -116 43q-47 49 -47 119h105q0 -32 18 -50q15 -16 40 -16t41 15q15 13 15 42q0 23 -11 39q-12 18 -41 30l-70 31q-54 24 -77 61q-17 27 -17 72q0 65 46 113q44 44 114 44q69 0 111 -40q45 -43 45 -117h-104q0 32 -15 48
t-37 16q-24 0 -39 -15t-15 -40q0 -19 8 -31q11 -18 39 -30l70 -30q54 -24 77 -58q22 -31 22 -86zM334 587h-82l-59 82l-59 -82h-82l99 139h84z" />
    <glyph glyph-name="Scedilla" unicode="&#x15e;" horiz-adv-x="442" 
d="M404 197q0 -112 -46 -157q-49 -47 -139 -47q-91 0 -138 47q-46 46 -46 153h112q0 -57 20 -80q17 -19 52 -19q37 0 54 20q19 22 19 79t-12.5 78.5t-54.5 38.5l-85 35q-55 23 -77 60.5t-22 118.5q0 99 58 151q49 43 122 43q83 0 128 -43q50 -49 50 -155h-112q0 54 -17 76
q-16 21 -50 21q-30 0 -48 -20q-19 -22 -19 -70q0 -44 11 -62.5t48 -33.5l84 -34q63 -26 85.5 -68t22.5 -132zM253 -40l-53 -154h-76l61 154h68z" />
    <glyph glyph-name="scedilla" unicode="&#x15f;" horiz-adv-x="381" 
d="M352 152q0 -70 -47 -117q-43 -43 -115 -43q-75 0 -116 43q-47 49 -47 119h105q0 -32 18 -50q15 -16 40 -16t41 15q15 13 15 42q0 23 -11 39q-12 18 -41 30l-70 31q-54 24 -77 61q-17 27 -17 72q0 65 46 113q44 44 114 44q69 0 111 -40q45 -43 45 -117h-104q0 32 -15 48
t-37 16q-24 0 -39 -15t-15 -40q0 -19 8 -31q11 -18 39 -30l70 -30q54 -24 77 -58q22 -31 22 -86zM224 -40l-53 -154h-76l61 154h68z" />
    <glyph glyph-name="Scaron" unicode="&#x160;" horiz-adv-x="442" 
d="M404 197q0 -112 -46 -157q-49 -47 -139 -47q-91 0 -138 47q-46 46 -46 153h112q0 -57 20 -80q17 -19 52 -19q37 0 54 20q19 22 19 79t-12.5 78.5t-54.5 38.5l-85 35q-55 23 -77 60.5t-22 118.5q0 99 58 151q49 43 122 43q83 0 128 -43q50 -49 50 -155h-112q0 54 -17 76
q-16 21 -50 21q-30 0 -48 -20q-19 -22 -19 -70q0 -44 11 -62.5t48 -33.5l84 -34q63 -26 85.5 -68t22.5 -132zM370 897l-99 -140h-83l-99 140h81l59 -82l60 82h81z" />
    <glyph glyph-name="scaron" unicode="&#x161;" horiz-adv-x="381" 
d="M352 152q0 -70 -47 -117q-43 -43 -115 -43q-75 0 -116 43q-47 49 -47 119h105q0 -32 18 -50q15 -16 40 -16t41 15q15 13 15 42q0 23 -11 39q-12 18 -41 30l-70 31q-54 24 -77 61q-17 27 -17 72q0 65 46 113q44 44 114 44q69 0 111 -40q45 -43 45 -117h-104q0 32 -15 48
t-37 16q-24 0 -39 -15t-15 -40q0 -19 8 -31q11 -18 39 -30l70 -30q54 -24 77 -58q22 -31 22 -86zM335 724l-99 -140h-84l-99 140h82l59 -82l59 82h82z" />
    <glyph glyph-name="Tcommaaccent" unicode="&#x162;" horiz-adv-x="393" 
d="M372 611h-120v-611h-112v611h-119v101h351v-101zM230 -40l-53 -154h-76l61 154h68z" />
    <glyph glyph-name="tcommaaccent" unicode="&#x163;" horiz-adv-x="274" 
d="M254 0q-87 0 -128 32q-53 42 -53 128v272h-54v81h54v149h106v-149h73v-81h-73v-266q0 -71 75 -71v-95zM202 -40l-53 -154h-76l61 154h68z" />
    <glyph glyph-name="Tcaron" unicode="&#x164;" horiz-adv-x="393" 
d="M372 611h-120v-611h-112v611h-119v101h351v-101zM337 897l-99 -140h-83l-99 140h81l59 -82l60 82h81z" />
    <glyph glyph-name="tcaron" unicode="&#x165;" horiz-adv-x="274" 
d="M254 0q-87 0 -128 32q-53 42 -53 128v272h-54v81h54v149h106v-149h73v-81h-73v-266q0 -71 75 -71v-95zM319 741l-36 -154h-67l24 154h79z" />
    <glyph glyph-name="Tbar" unicode="&#x166;" horiz-adv-x="393" 
d="M372 611h-120v-209h61v-88h-61v-314h-112v314h-60v88h60v209h-119v101h351v-101z" />
    <glyph glyph-name="tbar" unicode="&#x167;" horiz-adv-x="274" 
d="M254 0q-87 0 -128 32q-53 42 -53 128v101h-54v81h54v90h-54v81h54v149h106v-149h73v-81h-73v-90h73v-81h-73v-95q0 -71 75 -71v-95z" />
    <glyph glyph-name="Utilde" unicode="&#x168;" horiz-adv-x="471" 
d="M417 175q0 -80 -49 -131q-51 -52 -132 -52q-82 0 -133 52q-49 51 -49 131v537h112v-543q0 -37 20 -56.5t50 -19.5t49.5 19.5t19.5 56.5v543h112v-537zM382 814q-46 -46 -90 -46q-30 0 -61 17q-25 15 -44 15q-23 0 -46 -23l-46 46q47 47 89 47q33 0 62 -17q25 -15 44 -15
q23 0 45 23z" />
    <glyph glyph-name="utilde" unicode="&#x169;" horiz-adv-x="417" 
d="M365 0h-101v40q-17 -23 -36 -33q-25 -15 -53 -15q-61 0 -96 41q-30 34 -30 114v380h106v-379q0 -30 14.5 -45.5t37.5 -15.5t37.5 15.5t14.5 45.5v379h106v-527zM351 642q-46 -47 -90 -47q-30 0 -61 17q-25 15 -44 15q-23 0 -46 -23l-46 46q47 47 89 47q33 0 62 -17
q25 -15 44 -15q23 0 45 23z" />
    <glyph glyph-name="Umacron" unicode="&#x16a;" horiz-adv-x="471" 
d="M417 175q0 -80 -49 -131q-51 -52 -132 -52q-82 0 -133 52q-49 51 -49 131v537h112v-543q0 -37 20 -56.5t50 -19.5t49.5 19.5t19.5 56.5v543h112v-537zM358 776h-245v70h245v-70z" />
    <glyph glyph-name="umacron" unicode="&#x16b;" horiz-adv-x="417" 
d="M365 0h-101v40q-17 -23 -36 -33q-25 -15 -53 -15q-61 0 -96 41q-30 34 -30 114v380h106v-379q0 -30 14.5 -45.5t37.5 -15.5t37.5 15.5t14.5 45.5v379h106v-527zM330 604h-246v71h246v-71z" />
    <glyph glyph-name="Ubreve" unicode="&#x16c;" horiz-adv-x="471" 
d="M417 175q0 -80 -49 -131q-51 -52 -132 -52q-82 0 -133 52q-49 51 -49 131v537h112v-543q0 -37 20 -56.5t50 -19.5t49.5 19.5t19.5 56.5v543h112v-537zM360 875q-2 -61 -37 -90t-88 -29t-87.5 29t-36.5 90h71q4 -46 53 -46q50 0 54 46h71z" />
    <glyph glyph-name="ubreve" unicode="&#x16d;" horiz-adv-x="417" 
d="M365 0h-101v40q-17 -23 -36 -33q-25 -15 -53 -15q-61 0 -96 41q-30 34 -30 114v380h106v-379q0 -30 14.5 -45.5t37.5 -15.5t37.5 15.5t14.5 45.5v379h106v-527zM332 703q-2 -61 -37 -90t-88 -29t-87.5 29t-37.5 90h72q4 -46 53 -46t53 46h72z" />
    <glyph glyph-name="Uring" unicode="&#x16e;" horiz-adv-x="471" 
d="M417 175q0 -80 -49 -131q-51 -52 -132 -52q-82 0 -133 52q-49 51 -49 131v537h112v-543q0 -37 20 -56.5t50 -19.5t49.5 19.5t19.5 56.5v543h112v-537zM340 858q0 -43 -30.5 -73.5t-74.5 -30.5q-43 0 -73.5 30.5t-30.5 73.5t30.5 73.5t73.5 30.5q44 0 74.5 -30.5
t30.5 -73.5zM281 858q0 19 -13.5 32.5t-32.5 13.5t-32 -13.5t-13 -32.5t13 -32.5t32 -13.5t32.5 13.5t13.5 32.5z" />
    <glyph glyph-name="uring" unicode="&#x16f;" horiz-adv-x="417" 
d="M365 0h-101v40q-17 -23 -36 -33q-25 -15 -53 -15q-61 0 -96 41q-30 34 -30 114v380h106v-379q0 -30 14.5 -45.5t37.5 -15.5t37.5 15.5t14.5 45.5v379h106v-527zM312 689q0 -43 -31 -73.5t-74 -30.5t-73.5 30.5t-30.5 73.5q0 44 30.5 74.5t73.5 30.5q44 0 74.5 -30.5
t30.5 -74.5zM253 689q0 19 -13.5 32.5t-32.5 13.5t-32.5 -13.5t-13.5 -32.5t13.5 -32t32.5 -13t32.5 13t13.5 32z" />
    <glyph glyph-name="Uhungarumlaut" unicode="&#x170;" horiz-adv-x="471" 
d="M417 175q0 -80 -49 -131q-51 -52 -132 -52q-82 0 -133 52q-49 51 -49 131v537h112v-543q0 -37 20 -56.5t50 -19.5t49.5 19.5t19.5 56.5v543h112v-537zM260 900l-68 -140h-69l47 140h90zM408 900l-67 -140h-68l46 140h89z" />
    <glyph glyph-name="uhungarumlaut" unicode="&#x171;" horiz-adv-x="417" 
d="M365 0h-101v40q-17 -23 -36 -33q-25 -15 -53 -15q-61 0 -96 41q-30 34 -30 114v380h106v-379q0 -30 14.5 -45.5t37.5 -15.5t37.5 15.5t14.5 45.5v379h106v-527zM231 727l-67 -140h-69l47 140h89zM380 727l-67 -140h-69l46 140h90z" />
    <glyph glyph-name="Uogonek" unicode="&#x172;" horiz-adv-x="471" 
d="M417 175q0 -80 -49 -131q-51 -52 -132 -52q-82 0 -133 52q-49 51 -49 131v537h112v-543q0 -37 20 -56.5t50 -19.5t49.5 19.5t19.5 56.5v543h112v-537zM346 -40l-53 -154h-76l61 154h68z" />
    <glyph glyph-name="uogonek" unicode="&#x173;" horiz-adv-x="417" 
d="M365 0h-101v40q-17 -23 -36 -33q-25 -15 -53 -15q-61 0 -96 41q-30 34 -30 114v380h106v-379q0 -30 14.5 -45.5t37.5 -15.5t37.5 15.5t14.5 45.5v379h106v-527zM353 -40l-53 -154h-76l61 154h68z" />
    <glyph glyph-name="Wcircumflex" unicode="&#x174;" horiz-adv-x="714" 
d="M710 712l-134 -712h-117l-102 541l-101 -541h-117l-135 712h123l70 -540l98 540h124l99 -540l69 540h123zM498 760h-81l-60 82l-59 -82h-81l99 139h83z" />
    <glyph glyph-name="wcircumflex" unicode="&#x175;" horiz-adv-x="577" 
d="M573 527l-118 -527h-105l-63 342l-62 -342h-105l-116 527h118l55 -359l65 359h91l66 -359l55 359h119zM429 587h-82l-59 82l-59 -82h-82l99 139h84z" />
    <glyph glyph-name="Ycircumflex" unicode="&#x176;" horiz-adv-x="389" 
d="M388 712l-138 -433v-279h-112v279l-138 433h124l70 -282l71 282h123zM335 760h-81l-60 82l-59 -82h-81l99 139h83z" />
    <glyph glyph-name="ycircumflex" unicode="&#x177;" horiz-adv-x="382" 
d="M377 527l-148 -594q-18 -73 -65.5 -95.5t-131.5 -22.5v94q28 1 43 3.5t30 15t21 36.5l9 37l-131 526h117l70 -359l69 359h117zM334 587h-82l-59 82l-59 -82h-82l99 139h84z" />
    <glyph glyph-name="Ydieresis" unicode="&#x178;" horiz-adv-x="389" 
d="M388 712l-138 -433v-279h-112v279l-138 433h124l70 -282l71 282h123zM333 770h-100v100h100v-100zM158 770h-100v100h100v-100z" />
    <glyph glyph-name="Zacute" unicode="&#x179;" horiz-adv-x="373" 
d="M341 0h-310v84l194 527h-182v101h298v-84l-193 -527h193v-101zM310 899l-87 -139h-74l72 139h89z" />
    <glyph glyph-name="zacute" unicode="&#x17a;" horiz-adv-x="325" 
d="M299 0h-273v80l154 353h-142v94h261v-79l-154 -353h154v-95zM289 726l-88 -139h-74l72 139h90z" />
    <glyph glyph-name="Zdotaccent" unicode="&#x17b;" horiz-adv-x="373" 
d="M341 0h-310v84l194 527h-182v101h298v-84l-193 -527h193v-101zM244 770h-99v100h99v-100z" />
    <glyph glyph-name="zdotaccent" unicode="&#x17c;" horiz-adv-x="325" 
d="M299 0h-273v80l154 353h-142v94h261v-79l-154 -353h154v-95zM221 598h-100v100h100v-100z" />
    <glyph glyph-name="Zcaron" unicode="&#x17d;" horiz-adv-x="373" 
d="M341 0h-310v84l194 527h-182v101h298v-84l-193 -527h193v-101zM335 897l-99 -140h-83l-99 140h81l59 -82l60 82h81z" />
    <glyph glyph-name="zcaron" unicode="&#x17e;" horiz-adv-x="325" 
d="M299 0h-273v80l154 353h-142v94h261v-79l-154 -353h154v-95zM312 724l-99 -140h-84l-99 140h82l59 -82l59 82h82z" />
    <glyph glyph-name="longs" unicode="&#x17f;" horiz-adv-x="210" 
d="M158 552v-552h-106v558q0 85 53 127q43 33 126 33v-95q-73 0 -73 -71z" />
    <glyph glyph-name="uni018F" unicode="&#x18f;" horiz-adv-x="455" 
d="M40 190v197h260q-1 90 -6 136.5t-19 68.5q-17 27 -53 27q-68 0 -70 -96h-112q3 96 55 149q48 48 127 48q87 0 138 -61q33 -40 42.5 -102.5t9.5 -200.5t-9.5 -200.5t-42.5 -102.5q-51 -61 -138 -61q-83 0 -132.5 51.5t-49.5 146.5zM152 295v-111q0 -40 17.5 -65.5
t52.5 -25.5q36 0 53 27q23 37 25 175h-148z" />
    <glyph glyph-name="florin" unicode="&#x192;" horiz-adv-x="365" 
d="M342 624h-41q-23 0 -39 -14t-20 -36l-33 -186h75v-80h-90l-89 -493h-105l89 493h-52v80h67l33 192q12 69 57 104t104 35h44v-95z" />
    <glyph glyph-name="uni01B5" unicode="&#x1b5;" horiz-adv-x="373" 
d="M341 0h-310v84l87 236h-67v71h93l81 220h-182v101h298v-84l-86 -237h65v-71h-92l-80 -219h193v-101z" />
    <glyph glyph-name="uni01B6" unicode="&#x1b6;" horiz-adv-x="325" 
d="M299 0h-273v80l65 150h-49v67h78l60 136h-142v94h261v-79l-66 -151h49v-67h-78l-59 -135h154v-95z" />
    <glyph glyph-name="uni01C4" unicode="&#x1c4;" horiz-adv-x="845" 
d="M431 357q0 -136 -9 -198.5t-43 -99.5q-52 -59 -138 -59h-181v712h181q86 0 138 -59q34 -37 43 -98.5t9 -197.5zM319 357q0 104 -4.5 153t-19.5 72q-19 29 -57 29h-66v-510h66q38 0 57 29q15 23 19.5 72.5t4.5 154.5zM813 0h-310v84l194 527h-182v101h298v-84l-193 -527
h193v-101zM807 897l-99 -140h-83l-99 140h81l59 -82l60 82h81z" />
    <glyph glyph-name="uni01C5" unicode="&#x1c5;" horiz-adv-x="797" 
d="M431 357q0 -136 -9 -198.5t-43 -99.5q-52 -59 -138 -59h-181v712h181q86 0 138 -59q34 -37 43 -98.5t9 -197.5zM319 357q0 104 -4.5 153t-19.5 72q-19 29 -57 29h-66v-510h66q38 0 57 29q15 23 19.5 72.5t4.5 154.5zM771 0h-273v80l154 353h-142v94h261v-79l-154 -353
h154v-95zM784 724l-99 -140h-84l-99 140h82l59 -82l59 82h82z" />
    <glyph glyph-name="uni01C6" unicode="&#x1c6;" horiz-adv-x="733" 
d="M356 0h-102v40q-8 -18 -35 -33q-23 -15 -53 -15q-59 0 -93 41q-24 29 -30.5 80t-6.5 151t6.5 150.5t30.5 79.5q34 41 93 41q30 0 53 -14q15 -8 31 -28v219h106v-712zM250 150v227q0 33 -16 49q-15 15 -36 15q-24 0 -39 -21q-17 -22 -17 -156q0 -135 17 -157
q14 -20 39 -20q22 0 36 14q16 16 16 49zM707 0h-273v80l154 353h-142v94h261v-79l-154 -353h154v-95zM720 724l-99 -140h-84l-99 140h82l59 -82l59 82h82z" />
    <glyph glyph-name="uni01C7" unicode="&#x1c7;" horiz-adv-x="772" 
d="M359 0h-299v712h112v-611h187v-101zM718 186q0 -90 -49 -140q-51 -54 -143 -54q-86 0 -140 57l78 75q22 -31 62 -31q36 0 58 24.5t22 68.5v526h112v-526z" />
    <glyph glyph-name="uni01C8" unicode="&#x1c8;" horiz-adv-x="593" 
d="M359 0h-299v712h112v-611h187v-101zM541 -25q0 -86 -54 -127q-43 -33 -124 -33v95q37 0 54.5 16t17.5 55v532h106v-538zM546 594h-117v117h117v-117z" />
    <glyph glyph-name="uni01C9" unicode="&#x1c9;" horiz-adv-x="454" 
d="M227 0q-84 0 -125 32q-53 40 -53 128v552h106v-546q0 -71 72 -71v-95zM402 -25q0 -86 -54 -127q-43 -33 -124 -33v95q37 0 54.5 16t17.5 55v532h106v-538zM407 594h-117v117h117v-117z" />
    <glyph glyph-name="uni01CA" unicode="&#x1ca;" horiz-adv-x="888" 
d="M439 0h-99l-168 423v-423h-112v712h100l167 -423v423h112v-712zM834 186q0 -90 -49 -140q-51 -54 -143 -54q-86 0 -140 57l78 75q22 -31 62 -31q36 0 58 24.5t22 68.5v526h112v-526z" />
    <glyph glyph-name="uni01CB" unicode="&#x1cb;" horiz-adv-x="709" 
d="M439 0h-99l-168 423v-423h-112v712h100l167 -423v423h112v-712zM657 -25q0 -86 -54 -127q-43 -33 -124 -33v95q37 0 54.5 16t17.5 55v532h106v-538zM662 594h-117v117h117v-117z" />
    <glyph glyph-name="uni01CC" unicode="&#x1cc;" horiz-adv-x="627" 
d="M368 0h-106v379q0 30 -14.5 45.5t-37.5 15.5t-37.5 -15.5t-14.5 -45.5v-379h-106v527h102v-39q18 24 35 33q23 14 53 14q61 0 96 -41q30 -34 30 -114v-380zM575 -25q0 -86 -54 -127q-43 -33 -124 -33v95q37 0 54.5 16t17.5 55v532h106v-538zM580 594h-117v117h117v-117z
" />
    <glyph glyph-name="uni01F1" unicode="&#x1f1;" horiz-adv-x="845" 
d="M431 357q0 -136 -9 -198.5t-43 -99.5q-52 -59 -138 -59h-181v712h181q86 0 138 -59q34 -37 43 -98.5t9 -197.5zM319 357q0 104 -4.5 153t-19.5 72q-19 29 -57 29h-66v-510h66q38 0 57 29q15 23 19.5 72.5t4.5 154.5zM813 0h-310v84l194 527h-182v101h298v-84l-193 -527
h193v-101z" />
    <glyph glyph-name="uni01F2" unicode="&#x1f2;" horiz-adv-x="797" 
d="M431 357q0 -136 -9 -198.5t-43 -99.5q-52 -59 -138 -59h-181v712h181q86 0 138 -59q34 -37 43 -98.5t9 -197.5zM319 357q0 104 -4.5 153t-19.5 72q-19 29 -57 29h-66v-510h66q38 0 57 29q15 23 19.5 72.5t4.5 154.5zM771 0h-273v80l154 353h-142v94h261v-79l-154 -353
h154v-95z" />
    <glyph glyph-name="uni01F3" unicode="&#x1f3;" horiz-adv-x="733" 
d="M356 0h-102v40q-8 -18 -35 -33q-23 -15 -53 -15q-59 0 -93 41q-24 29 -30.5 80t-6.5 151t6.5 150.5t30.5 79.5q34 41 93 41q30 0 53 -14q15 -8 31 -28v219h106v-712zM250 150v227q0 33 -16 49q-15 15 -36 15q-24 0 -39 -21q-17 -22 -17 -156q0 -135 17 -157
q14 -20 39 -20q22 0 36 14q16 16 16 49zM707 0h-273v80l154 353h-142v94h261v-79l-154 -353h154v-95z" />
    <glyph glyph-name="Aringacute" unicode="&#x1fa;" horiz-adv-x="468" 
d="M462 0h-117l-29 141h-165l-28 -141h-118l175 712h109zM295 242l-61 298l-61 -298h122zM339 858q0 -43 -30.5 -73.5t-74.5 -30.5q-43 0 -73.5 30.5t-30.5 73.5t30.5 73.5t73.5 30.5q44 0 74.5 -30.5t30.5 -73.5zM280 858q0 19 -13.5 32.5t-32.5 13.5t-32 -13.5t-13 -32.5
t13 -32.5t32 -13.5t32.5 13.5t13.5 32.5zM350 1111l-87 -139h-74l72 139h89z" />
    <glyph glyph-name="aringacute" unicode="&#x1fb;" horiz-adv-x="399" 
d="M350 0h-100v45q-18 -25 -32 -35q-26 -18 -60 -18q-61 0 -99 44q-32 38 -32 118q0 75 49 118q41 36 121 36h47v73q0 61 -51 61q-22 0 -35 -15q-16 -17 -16 -49h-106q0 69 45 114q43 43 111 43q74 0 112 -39q46 -46 46 -124v-372zM244 155v78h-35q-38 0 -55 -16
q-21 -19 -21 -59q0 -73 55 -73q24 0 40 19t16 51zM300 689q0 -43 -31 -73.5t-74 -30.5t-73.5 30.5t-30.5 73.5q0 44 30.5 74.5t73.5 30.5q44 0 74.5 -30.5t30.5 -74.5zM241 689q0 19 -13.5 32.5t-32.5 13.5t-32.5 -13.5t-13.5 -32.5t13.5 -32t32.5 -13t32.5 13t13.5 32z
M313 943l-88 -139h-74l72 139h90z" />
    <glyph glyph-name="AEacute" unicode="&#x1fc;" horiz-adv-x="675" 
d="M638 0h-299v148h-158l-52 -148h-123l261 712h371v-101h-187v-202h161v-101h-161v-207h187v-101zM339 249v362l-125 -362h125zM511 899l-87 -139h-74l72 139h89z" />
    <glyph glyph-name="aeacute" unicode="&#x1fd;" horiz-adv-x="602" 
d="M244 155v78h-35q-38 0 -55 -16q-21 -19 -21 -59q0 -73 55 -73q24 0 40 19t16 51zM461 311q0 87 -15 109q-15 21 -41 21t-41 -21q-15 -22 -15 -109h112zM568 233h-218q0 -102 16 -125q14 -21 40 -21t41 21q13 16 13 47h105q-3 -76 -44 -121q-39 -42 -115 -42q-54 0 -89 26
q-23 16 -41 44q-21 -33 -42 -48q-31 -22 -76 -22q-61 0 -99 44q-32 40 -32 118q0 75 49 118q41 36 121 36h47v74q0 29 -13.5 44.5t-37.5 15.5t-37 -16q-14 -17 -14 -48h-106q0 69 45 114q43 43 111 43q57 0 88 -24q9 -8 19 -21q6 9 16 17q37 28 91 28q71 0 113 -42
q29 -29 39 -91t10 -169zM417 726l-88 -139h-74l72 139h90z" />
    <glyph glyph-name="Oslashacute" unicode="&#x1fe;" horiz-adv-x="462" 
d="M421 356q0 -139 -9 -201.5t-43 -101.5q-51 -61 -138 -61q-47 0 -87 19l-19 -55h-74l37 103q-30 39 -38.5 100.5t-8.5 196.5q0 138 9.5 200.5t42.5 102.5q51 61 138 61q50 0 87 -20l20 56h74l-37 -105q29 -36 37.5 -98.5t8.5 -196.5zM153 356q0 -96 3 -132l125 374
q-18 21 -50 21q-36 0 -53 -27q-25 -40 -25 -236zM309 356q0 78 -3 130l-124 -371q14 -22 49 -22q37 0 54 27q15 24 19.5 76.5t4.5 159.5zM347 899l-87 -139h-74l72 139h89z" />
    <glyph glyph-name="oslashacute" unicode="&#x1ff;" horiz-adv-x="394" 
d="M367 571l-41 -95q34 -50 34 -212q0 -164 -37 -216q-40 -56 -125 -56q-47 0 -77 15l-21 -51h-71l41 96q-34 50 -34 212q0 164 37 216q40 55 125 55q47 0 77 -15l21 51h71zM235 429q-14 16 -37 16q-28 0 -41 -22q-16 -27 -16 -159q0 -45 3 -60zM255 264q0 49 -3 59
l-91 -225q14 -16 37 -16q27 0 41 23q16 27 16 159zM316 726l-88 -139h-74l72 139h90z" />
    <glyph glyph-name="Scommaaccent" unicode="&#x218;" horiz-adv-x="442" 
d="M404 197q0 -112 -46 -157q-49 -47 -139 -47q-91 0 -138 47q-46 46 -46 153h112q0 -57 20 -80q17 -19 52 -19q37 0 54 20q19 22 19 79t-12.5 78.5t-54.5 38.5l-85 35q-55 23 -77 60.5t-22 118.5q0 99 58 151q49 43 122 43q83 0 128 -43q50 -49 50 -155h-112q0 54 -17 76
q-16 21 -50 21q-30 0 -48 -20q-19 -22 -19 -70q0 -44 11 -62.5t48 -33.5l84 -34q63 -26 85.5 -68t22.5 -132zM253 -40l-53 -154h-76l61 154h68z" />
    <glyph glyph-name="scommaaccent" unicode="&#x219;" horiz-adv-x="381" 
d="M352 152q0 -70 -47 -117q-43 -43 -115 -43q-75 0 -116 43q-47 49 -47 119h105q0 -32 18 -50q15 -16 40 -16t41 15q15 13 15 42q0 23 -11 39q-12 18 -41 30l-70 31q-54 24 -77 61q-17 27 -17 72q0 65 46 113q44 44 114 44q69 0 111 -40q45 -43 45 -117h-104q0 32 -15 48
t-37 16q-24 0 -39 -15t-15 -40q0 -19 8 -31q11 -18 39 -30l70 -30q54 -24 77 -58q22 -31 22 -86zM224 -40l-53 -154h-76l61 154h68z" />
    <glyph glyph-name="uni021A" unicode="&#x21a;" horiz-adv-x="393" 
d="M372 611h-120v-611h-112v611h-119v101h351v-101zM230 -40l-53 -154h-76l61 154h68z" />
    <glyph glyph-name="uni021B" unicode="&#x21b;" horiz-adv-x="274" 
d="M254 0q-87 0 -128 32q-53 42 -53 128v272h-54v81h54v149h106v-149h73v-81h-73v-266q0 -71 75 -71v-95zM202 -40l-53 -154h-76l61 154h68z" />
    <glyph glyph-name="uni0237" unicode="&#x237;" horiz-adv-x="210" 
d="M158 -25q0 -86 -54 -127q-43 -33 -124 -33v95q37 0 54.5 16t17.5 55v532h106v-538z" />
    <glyph glyph-name="uni0259" unicode="&#x259;" horiz-adv-x="394" 
d="M36 294h218q0 100 -16 125q-14 21 -41 21q-26 0 -40 -20q-13 -16 -13 -48h-106q3 77 45 121q39 42 114 42q72 0 114 -43q30 -31 39.5 -87t9.5 -142t-9.5 -142t-39.5 -87q-41 -42 -113 -42q-71 0 -113 42q-29 29 -39 91.5t-10 168.5zM142 216q0 -87 15 -109q15 -21 41 -21
t41 21q15 22 15 109h-112z" />
    <glyph glyph-name="uni02BB" unicode="&#x2bb;" horiz-adv-x="229" 
d="M172 588h-115v124l115 85v-209z" />
    <glyph glyph-name="afii57929" unicode="&#x2bc;" horiz-adv-x="229" 
d="M172 588l-115 -86v210h115v-124z" />
    <glyph glyph-name="circumflex" unicode="&#x2c6;" 
d="M339 587h-82l-59 82l-59 -82h-82l99 139h84z" />
    <glyph glyph-name="caron" unicode="&#x2c7;" 
d="M339 724l-99 -140h-84l-99 140h82l59 -82l59 82h82z" />
    <glyph glyph-name="breve" unicode="&#x2d8;" 
d="M323 703q-2 -61 -37 -90t-88 -29t-87.5 29t-37.5 90h72q4 -46 53 -46t53 46h72z" />
    <glyph glyph-name="dotaccent" unicode="&#x2d9;" 
d="M248 598h-100v100h100v-100z" />
    <glyph glyph-name="ring" unicode="&#x2da;" 
d="M303 689q0 -43 -31 -73.5t-74 -30.5t-73.5 30.5t-30.5 73.5q0 44 30.5 74.5t73.5 30.5q44 0 74.5 -30.5t30.5 -74.5zM244 689q0 19 -13.5 32.5t-32.5 13.5t-32.5 -13.5t-13.5 -32.5t13.5 -32t32.5 -13t32.5 13t13.5 32z" />
    <glyph glyph-name="ogonek" unicode="&#x2db;" 
d="M243 -40l-53 -154h-76l61 154h68z" />
    <glyph glyph-name="tilde" unicode="&#x2dc;" 
d="M345 642q-46 -47 -90 -47q-30 0 -61 17q-25 15 -44 15q-23 0 -46 -23l-46 46q47 47 89 47q33 0 62 -17q25 -15 44 -15q23 0 45 23z" />
    <glyph glyph-name="hungarumlaut" unicode="&#x2dd;" 
d="M222 727l-67 -140h-69l47 140h89zM371 727l-67 -140h-69l46 140h90z" />
    <glyph glyph-name="uni0394" unicode="&#x394;" horiz-adv-x="468" 
d="M462 0h-457l175 712h109zM324 101l-90 439l-90 -439h180z" />
    <glyph glyph-name="uni03A9" unicode="&#x3a9;" horiz-adv-x="491" 
d="M440 0h-167v84q29 17 38 51q12 50 12 221q0 113 -5.5 164t-19.5 72q-18 27 -53 27t-53 -27q-14 -21 -19 -71.5t-5 -164.5q0 -175 11 -221q8 -34 39 -51v-84h-167v94h56q-18 12 -28 37q-23 60 -23 225q0 137 9 200.5t43 103.5q53 60 137 60q85 0 138 -60q34 -40 43 -103.5
t9 -200.5q0 -172 -23 -225q-9 -24 -29 -37h57v-94z" />
    <glyph glyph-name="uni03BC" unicode="&#x3bc;" horiz-adv-x="421" 
d="M367 0h-102v40q-18 -24 -35 -33q-25 -15 -56 -15q-16 0 -22 8v-185h-102v712h106v-379q0 -29 15 -45t38 -16t37.5 15.5t14.5 45.5v379h106v-527z" />
    <glyph glyph-name="pi" unicode="&#x3c0;" horiz-adv-x="436" 
d="M376 527v-527h-106v439h-104v-439h-106v527h316z" />
    <glyph glyph-name="uni0400" unicode="&#x400;" 
d="M359 0h-299v712h299v-101h-187v-202h161v-101h-161v-207h187v-101zM259 760h-74l-88 139h90z" />
    <glyph glyph-name="afii10023" unicode="&#x401;" 
d="M359 0h-299v712h299v-101h-187v-202h161v-101h-161v-207h187v-101zM347 770h-100v100h100v-100zM172 770h-100v100h100v-100z" />
    <glyph glyph-name="afii10051" unicode="&#x402;" horiz-adv-x="522" 
d="M486 219q0 -111 -43 -165t-141 -54h-11v100h11q42 0 57 30.5t15 88.5t-15 89t-57 31h-67v-339h-112v611h-102v101h349v-101h-135v-172h67q99 0 141.5 -53.5t42.5 -166.5z" />
    <glyph glyph-name="afii10052" unicode="&#x403;" horiz-adv-x="376" 
d="M354 611h-182v-611h-112v712h294v-101zM305 899l-87 -139h-74l72 139h89z" />
    <glyph glyph-name="afii10053" unicode="&#x404;" horiz-adv-x="447" 
d="M413 189q-3 -101 -59 -152q-48 -45 -123 -45q-87 0 -138 61q-33 40 -42.5 102.5t-9.5 200.5t9.5 200.5t42.5 102.5q51 61 138 61q76 0 125 -46q54 -49 57 -150h-112q-2 48 -17 69q-16 26 -53 26q-36 0 -53 -27q-23 -36 -25 -184h134v-100h-134q2 -152 25 -188
q17 -27 53 -27q37 0 53 26q15 23 17 70h112z" />
    <glyph glyph-name="afii10054" unicode="&#x405;" horiz-adv-x="442" 
d="M404 197q0 -112 -46 -157q-49 -47 -139 -47q-91 0 -138 47q-46 46 -46 153h112q0 -57 20 -80q17 -19 52 -19q37 0 54 20q19 22 19 79t-12.5 78.5t-54.5 38.5l-85 35q-55 23 -77 60.5t-22 118.5q0 99 58 151q49 43 122 43q83 0 128 -43q50 -49 50 -155h-112q0 54 -17 76
q-16 21 -50 21q-30 0 -48 -20q-19 -22 -19 -70q0 -44 11 -62.5t48 -33.5l84 -34q63 -26 85.5 -68t22.5 -132z" />
    <glyph glyph-name="afii10055" unicode="&#x406;" horiz-adv-x="232" 
d="M172 0h-112v712h112v-712z" />
    <glyph glyph-name="afii10056" unicode="&#x407;" horiz-adv-x="232" 
d="M172 0h-112v712h112v-712zM254 770h-100v100h100v-100zM79 770h-100v100h100v-100z" />
    <glyph glyph-name="afii10057" unicode="&#x408;" horiz-adv-x="389" 
d="M335 186q0 -90 -49 -140q-51 -54 -143 -54q-86 0 -140 57l78 75q22 -31 62 -31q36 0 58 24.5t22 68.5v526h112v-526z" />
    <glyph glyph-name="afii10058" unicode="&#x409;" horiz-adv-x="741" 
d="M704 217q0 -113 -43.5 -165t-139.5 -52h-179v611h-116v-306q0 -80 -9.5 -137t-24.5 -89.5t-40 -50.5t-48.5 -23t-57.5 -5h-33v99h10q23 0 37.5 6t29.5 26.5t22 67t7 119.5v394h335v-279h67q96 0 139.5 -52t43.5 -164zM592 217q0 58 -16 86.5t-59 28.5h-63v-231h63
q43 0 59 29t16 87z" />
    <glyph glyph-name="afii10059" unicode="&#x40a;" horiz-adv-x="709" 
d="M673 217q0 -113 -43.5 -165t-139.5 -52h-179v333h-139v-333h-112v712h112v-278h139v278h112v-279h67q96 0 139.5 -52t43.5 -164zM561 217q0 58 -16 86.5t-59 28.5h-63v-231h63q43 0 59 29t16 87z" />
    <glyph glyph-name="afii10060" unicode="&#x40b;" horiz-adv-x="523" 
d="M483 0h-112v225q0 60 -18 87t-65 27h-53v-339h-112v611h-102v101h349v-101h-135v-171h69q100 0 139.5 -50t39.5 -148v-242z" />
    <glyph glyph-name="afii10061" unicode="&#x40c;" horiz-adv-x="476" 
d="M470 0h-124l-173 371l160 341h118l-163 -336zM171 0h-112v712h112v-712zM361 899l-87 -139h-74l72 139h89z" />
    <glyph glyph-name="uni040D" unicode="&#x40d;" horiz-adv-x="491" 
d="M159 0h-99v712h112v-436l159 436h100v-712h-112v436zM286 760h-74l-88 139h90z" />
    <glyph glyph-name="afii10062" unicode="&#x40e;" horiz-adv-x="423" 
d="M419 712l-188 -591q-24 -74 -62 -97.5t-125 -23.5v100q46 0 67 15.5t33 57.5l16 58l-156 481h122l86 -329l85 329h122zM340 873q-4 -116 -128 -116t-128 116h75q3 -46 53 -46t53 46h75z" />
    <glyph glyph-name="afii10145" unicode="&#x40f;" horiz-adv-x="483" 
d="M422 0h-128v-143h-106v143h-128v712h112v-611h138v611h112v-712z" />
    <glyph glyph-name="afii10017" unicode="&#x410;" horiz-adv-x="468" 
d="M462 0h-117l-29 141h-165l-28 -141h-118l175 712h109zM295 242l-61 298l-61 -298h122z" />
    <glyph glyph-name="afii10018" unicode="&#x411;" horiz-adv-x="461" 
d="M422 217q0 -113 -43.5 -165t-139.5 -52h-179v712h331v-100h-219v-179h67q96 0 139.5 -52t43.5 -164zM310 217q0 58 -16 86.5t-59 28.5h-63v-231h63q43 0 59 29t16 87z" />
    <glyph glyph-name="afii10019" unicode="&#x412;" horiz-adv-x="472" 
d="M423 204q0 -63 -10 -98t-36 -61q-45 -45 -140 -45h-177v712h178q95 0 138 -44q25 -25 35 -57t10 -89q0 -82 -41 -124q-17 -17 -37 -25q24 -11 39 -26q41 -42 41 -143zM311 212q0 59 -20 85t-65 26h-54v-222h54q46 0 65.5 25t19.5 86zM309 515q0 52 -18.5 74t-62.5 22h-56
v-193h56q43 0 62 23t19 74z" />
    <glyph glyph-name="afii10020" unicode="&#x413;" horiz-adv-x="376" 
d="M354 611h-182v-611h-112v712h294v-101z" />
    <glyph glyph-name="afii10021" unicode="&#x414;" horiz-adv-x="539" 
d="M513 -135h-106v135h-288v-135h-106v236h46q59 150 59 345v266h336v-611h59v-236zM342 101v511h-117v-194q0 -177 -52 -317h169z" />
    <glyph glyph-name="afii10022" unicode="&#x415;" 
d="M359 0h-299v712h299v-101h-187v-202h161v-101h-161v-207h187v-101z" />
    <glyph glyph-name="afii10024" unicode="&#x416;" horiz-adv-x="714" 
d="M714 0h-124l-173 371l160 341h118l-163 -336zM128 0h-124l182 376l-163 336h118l160 -341zM415 0h-112v712h112v-712z" />
    <glyph glyph-name="afii10025" unicode="&#x417;" horiz-adv-x="447" 
d="M399 198q0 -104 -45 -153q-49 -53 -138 -53q-85 0 -129 44q-50 50 -53 152h112q0 -48 20 -74q19 -21 50 -21q32 0 49 20q22 26 22 89q0 68 -24 93q-18 18 -47 18h-56v95h56q29 0 45 17q23 24 23 89q0 63 -20 85q-17 20 -48 20t-49 -21q-19 -25 -21 -74h-111q1 96 52 150
q46 46 129 46q87 0 134 -50q26 -28 36 -62.5t10 -89.5q0 -75 -31 -114q-19 -25 -47 -41q28 -14 48 -39q33 -40 33 -126z" />
    <glyph glyph-name="afii10026" unicode="&#x418;" horiz-adv-x="491" 
d="M159 0h-99v712h112v-436l159 436h100v-712h-112v436z" />
    <glyph glyph-name="afii10027" unicode="&#x419;" horiz-adv-x="491" 
d="M159 0h-99v712h112v-436l159 436h100v-712h-112v436zM373 873q-4 -116 -128 -116t-128 116h75q3 -46 53 -46t53 46h75z" />
    <glyph glyph-name="afii10028" unicode="&#x41a;" horiz-adv-x="476" 
d="M470 0h-124l-173 371l160 341h118l-163 -336zM171 0h-112v712h112v-712z" />
    <glyph glyph-name="afii10029" unicode="&#x41b;" horiz-adv-x="512" 
d="M452 0h-112v611h-113v-307q0 -99 -13.5 -162.5t-40.5 -93t-55.5 -39t-71.5 -9.5h-33v101h10q18 0 30 3t25.5 15t21.5 34.5t13.5 63.5t5.5 100v395h333v-712z" />
    <glyph glyph-name="afii10030" unicode="&#x41c;" horiz-adv-x="597" 
d="M538 0h-112v444l-97 -292h-62l-95 287v-439h-112v712h101l138 -374l137 374h102v-712z" />
    <glyph glyph-name="afii10031" unicode="&#x41d;" horiz-adv-x="483" 
d="M423 0h-112v311h-139v-311h-112v712h112v-300h139v300h112v-712z" />
    <glyph glyph-name="afii10032" unicode="&#x41e;" horiz-adv-x="462" 
d="M421 356q0 -139 -9 -201.5t-43 -101.5q-51 -61 -138 -61t-138 61q-33 40 -42.5 102.5t-9.5 200.5t9.5 200.5t42.5 102.5q51 61 138 61t138 -61q34 -39 43 -101.5t9 -201.5zM309 356q0 107 -4.5 159.5t-19.5 76.5q-17 27 -54 27q-36 0 -53 -27q-25 -40 -25 -236t25 -236
q17 -27 53 -27q37 0 54 27q15 24 19.5 76.5t4.5 159.5z" />
    <glyph glyph-name="afii10033" unicode="&#x41f;" horiz-adv-x="483" 
d="M423 0h-112v611h-140v-611h-112v712h364v-712z" />
    <glyph glyph-name="afii10034" unicode="&#x420;" horiz-adv-x="458" 
d="M422 495q0 -112 -43.5 -164t-139.5 -52h-67v-279h-112v712h179q96 0 139.5 -52t43.5 -165zM310 495q0 58 -16 87t-59 29h-63v-231h63q43 0 59 28.5t16 86.5z" />
    <glyph glyph-name="afii10035" unicode="&#x421;" horiz-adv-x="446" 
d="M413 189q-3 -101 -59 -152q-48 -45 -123 -45q-87 0 -138 61q-33 40 -42.5 102.5t-9.5 200.5t9.5 200.5t42.5 102.5q51 61 138 61q76 0 125 -46q54 -49 57 -150h-112q-2 48 -17 69q-16 26 -53 26q-36 0 -53 -27q-15 -24 -20 -76.5t-5 -159.5t5 -159.5t20 -76.5
q17 -27 53 -27q37 0 53 26q15 23 17 70h112z" />
    <glyph glyph-name="afii10036" unicode="&#x422;" horiz-adv-x="393" 
d="M372 611h-120v-611h-112v611h-119v101h351v-101z" />
    <glyph glyph-name="afii10037" unicode="&#x423;" horiz-adv-x="423" 
d="M419 712l-188 -591q-24 -74 -62 -97.5t-125 -23.5v100q46 0 67 15.5t33 57.5l16 58l-156 481h122l86 -329l85 329h122z" />
    <glyph glyph-name="afii10038" unicode="&#x424;" horiz-adv-x="625" 
d="M586 377q0 -71 -8 -119t-30 -90.5t-67 -64t-113 -24.5v-84h-112v84q-54 2 -93.5 17.5t-63 39.5t-37.5 63t-18.5 80t-4.5 98q0 73 8.5 122.5t31.5 90.5t66.5 61.5t110.5 23.5v69h112v-69q68 -3 113 -24.5t67 -63.5t30 -90.5t8 -119.5zM474 377q0 109 -20.5 153.5
t-87.5 47.5v-401q67 3 87.5 47t20.5 153zM258 177v401q-67 -3 -87 -47.5t-20 -153.5t20 -153t87 -47z" />
    <glyph glyph-name="afii10039" unicode="&#x425;" horiz-adv-x="432" 
d="M421 0h-123l-82 256l-82 -256h-123l141 369l-130 343h123l71 -238l71 238h123l-133 -343z" />
    <glyph glyph-name="afii10040" unicode="&#x426;" horiz-adv-x="507" 
d="M482 -143h-106v143h-316v712h112v-611h138v611h112v-611h60v-244z" />
    <glyph glyph-name="afii10041" unicode="&#x427;" horiz-adv-x="471" 
d="M411 0h-111v246q-36 -5 -82 -5q-88 0 -126.5 39.5t-38.5 133.5v298h112v-287q0 -48 16.5 -66t54.5 -18q25 0 63 5v366h112v-712z" />
    <glyph glyph-name="afii10042" unicode="&#x428;" horiz-adv-x="702" 
d="M642 0h-582v712h112v-611h123v611h112v-611h123v611h112v-712z" />
    <glyph glyph-name="afii10043" unicode="&#x429;" horiz-adv-x="727" 
d="M596 -143v143h-536v712h112v-611h123v611h112v-611h123v611h112v-611h60v-244h-106z" />
    <glyph glyph-name="afii10044" unicode="&#x42a;" horiz-adv-x="524" 
d="M487 216q0 -112 -43.5 -164t-139.5 -52h-179v612h-104v100h216v-278h67q99 0 141 -53.5t42 -164.5zM375 217q0 56 -14 86t-55 30h-69v-232h69q41 0 55 30t14 86z" />
    <glyph glyph-name="afii10045" unicode="&#x42b;" horiz-adv-x="654" 
d="M422 217q0 -113 -43.5 -165t-139.5 -52h-179v712h112v-279h67q96 0 139.5 -52t43.5 -164zM310 217q0 58 -16 86.5t-59 28.5h-63v-231h63q43 0 59 29t16 87zM595 0h-112v712h112v-712z" />
    <glyph glyph-name="afii10046" unicode="&#x42c;" horiz-adv-x="458" 
d="M422 217q0 -113 -43.5 -165t-139.5 -52h-179v712h112v-279h67q96 0 139.5 -52t43.5 -164zM310 217q0 58 -16 86.5t-59 28.5h-63v-231h63q43 0 59 29t16 87z" />
    <glyph glyph-name="afii10047" unicode="&#x42d;" horiz-adv-x="446" 
d="M155 308v100h137q-2 148 -25 184q-17 27 -53 27q-37 0 -53 -26q-15 -21 -17 -69h-112q3 101 57 150q49 46 125 46q87 0 138 -61q33 -40 42.5 -102.5t9.5 -200.5t-9.5 -200.5t-42.5 -102.5q-51 -61 -138 -61q-75 0 -123 45q-56 51 -59 152h112q2 -47 17 -70q16 -26 53 -26
q36 0 53 27q23 36 25 188h-137z" />
    <glyph glyph-name="afii10048" unicode="&#x42e;" horiz-adv-x="666" 
d="M172 0h-112v712h112v-312h72q1 110 11 166t41 93q51 61 138 61t138 -61q34 -39 43 -101.5t9 -201.5t-9 -201.5t-43 -101.5q-51 -61 -138 -61t-138 61q-30 36 -40.5 90t-11.5 157h-72v-300zM512 356q0 107 -4.5 159.5t-19.5 76.5q-17 27 -54 27q-36 0 -53 -27
q-25 -40 -25 -236t25 -236q17 -27 53 -27q37 0 54 27q15 24 19.5 76.5t4.5 159.5z" />
    <glyph glyph-name="afii10049" unicode="&#x42f;" horiz-adv-x="477" 
d="M149 0h-117l106 316q-46 25 -64.5 70t-18.5 116q0 111 42.5 160.5t139.5 49.5h180v-712h-112v292h-63zM167 502q0 -52 14 -80.5t55 -28.5h69v218h-69q-41 0 -55 -28.5t-14 -80.5z" />
    <glyph glyph-name="afii10065" unicode="&#x430;" horiz-adv-x="399" 
d="M350 0h-100v45q-18 -25 -32 -35q-26 -18 -60 -18q-61 0 -99 44q-32 38 -32 118q0 75 49 118q41 36 121 36h47v73q0 61 -51 61q-22 0 -35 -15q-16 -17 -16 -49h-106q0 69 45 114q43 43 111 43q74 0 112 -39q46 -46 46 -124v-372zM244 155v78h-35q-38 0 -55 -16
q-21 -19 -21 -59q0 -73 55 -73q24 0 40 19t16 51z" />
    <glyph glyph-name="afii10066" unicode="&#x431;" horiz-adv-x="400" 
d="M365 264q0 -166 -37 -216q-40 -56 -125 -56t-125 56q-37 50 -37 216q0 187 8 249.5t35 107.5q31 49 93.5 72t161.5 25v-94q-122 -2 -159 -41q-26 -30 -34 -92q32 37 85 37q56 0 94 -43q25 -29 32.5 -78t7.5 -143zM259 264q0 129 -15 155q-14 22 -41 22t-41 -22
q-15 -26 -15 -155t15 -156q14 -21 41 -21t41 21q15 27 15 156z" />
    <glyph glyph-name="afii10067" unicode="&#x432;" horiz-adv-x="408" 
d="M371 153q0 -44 -9 -70t-30 -47q-38 -36 -120 -36h-160v527h160q85 0 119 -33q38 -35 38 -109q0 -60 -33 -90q-13 -13 -33 -21q22 -8 34 -20q34 -29 34 -101zM265 160q0 38 -15 54t-49 16h-46v-139h46q34 0 49 15t15 54zM263 375q0 34 -14.5 48t-44.5 14h-49v-125h49
q30 0 44.5 14.5t14.5 48.5z" />
    <glyph glyph-name="afii10068" unicode="&#x433;" horiz-adv-x="340" 
d="M323 527v-94h-165v-433h-106v527h271z" />
    <glyph glyph-name="afii10069" unicode="&#x434;" horiz-adv-x="472" 
d="M450 -134h-101v134h-235v-134h-101v228h44q46 114 46 268v165h298v-433h49v-228zM295 94v339h-90v-90q0 -144 -39 -249h129z" />
    <glyph glyph-name="afii10070" unicode="&#x435;" horiz-adv-x="394" 
d="M360 233h-218q0 -100 16 -125q14 -21 41 -21q26 0 40 20q13 16 13 48h106q-3 -77 -45 -121q-39 -42 -114 -42q-72 0 -114 43q-30 31 -39.5 87t-9.5 142t9.5 142t39.5 87q41 42 113 42q71 0 113 -42q29 -29 39 -91t10 -169zM254 311q0 87 -15 109q-15 21 -41 21t-41 -21
q-15 -22 -15 -109h112z" />
    <glyph glyph-name="afii10072" unicode="&#x436;" horiz-adv-x="624" 
d="M620 0h-118l-136 275l124 252h115l-130 -249zM365 0h-106v527h106v-527zM258 275l-135 -275h-119l145 278l-130 249h115z" />
    <glyph glyph-name="afii10073" unicode="&#x437;" horiz-adv-x="381" 
d="M346 145q0 -77 -46 -119q-39 -34 -114 -34q-74 0 -114 40q-45 43 -45 124h105q0 -40 17 -57q13 -13 37 -13t38 14q16 16 16 54q0 42 -18 58q-14 13 -40 13h-36v85h35q24 0 38 12q17 17 17 54t-15 52q-13 13 -35 13q-23 0 -38 -13q-16 -17 -16 -56h-105q0 80 43 121
q44 42 116 42q79 0 115 -36q41 -41 41 -114q0 -51 -27 -84q-14 -17 -36 -29q21 -11 37 -27q30 -33 30 -100z" />
    <glyph glyph-name="afii10074" unicode="&#x438;" horiz-adv-x="424" 
d="M372 0h-106v300l-120 -300h-94v527h106v-300l120 300h94v-527z" />
    <glyph glyph-name="afii10075" unicode="&#x439;" horiz-adv-x="424" 
d="M372 0h-106v300l-120 -300h-94v527h106v-300l120 300h94v-527zM337 703q-2 -61 -37 -90t-88 -29t-87.5 29t-37.5 90h72q4 -46 53 -46t53 46h72z" />
    <glyph glyph-name="afii10076" unicode="&#x43a;" horiz-adv-x="419" 
d="M414 0h-118l-136 275l125 252h114l-130 -249zM159 0h-106v527h106v-527z" />
    <glyph glyph-name="afii10077" unicode="&#x43b;" horiz-adv-x="441" 
d="M389 0h-106v432h-84v-215q0 -124 -36 -170.5t-116 -46.5h-34v94h16q15 0 25 4t21 16.5t16.5 42t5.5 76.5v294h292v-527z" />
    <glyph glyph-name="afii10078" unicode="&#x43c;" horiz-adv-x="517" 
d="M465 0h-106v303l-72 -172h-57l-72 172v-303h-106v527h97l110 -261l110 261h96v-527z" />
    <glyph glyph-name="afii10079" unicode="&#x43d;" horiz-adv-x="415" 
d="M363 0h-106v222h-99v-222h-106v527h106v-211h99v211h106v-527z" />
    <glyph glyph-name="afii10080" unicode="&#x43e;" horiz-adv-x="395" 
d="M360 264q0 -164 -37 -216q-40 -56 -125 -56t-125 56q-37 52 -37 216t37 216q40 55 125 55t125 -55q37 -52 37 -216zM254 264q0 129 -15 155q-14 22 -41 22t-41 -22q-15 -26 -15 -155q0 -130 15 -156q13 -21 41 -21t41 21q15 26 15 156z" />
    <glyph glyph-name="afii10081" unicode="&#x43f;" horiz-adv-x="415" 
d="M363 0h-106v432h-99v-432h-106v527h311v-527z" />
    <glyph glyph-name="afii10082" unicode="&#x440;" horiz-adv-x="407" 
d="M372 264q0 -98 -7 -149.5t-30 -81.5q-33 -41 -93 -41q-30 0 -53 14q-17 11 -31 28v-219h-106v712h102v-39q8 16 35 33q23 14 53 14q60 0 93 -41q24 -30 30.5 -81t6.5 -149zM266 264q0 134 -17 156q-15 21 -39 21q-22 0 -36 -15q-16 -18 -16 -49v-227q0 -33 16 -49
q14 -14 36 -14q25 0 39 20q17 22 17 157z" />
    <glyph glyph-name="afii10083" unicode="&#x441;" horiz-adv-x="383" 
d="M356 155q-5 -83 -46 -124q-39 -39 -112 -39q-85 0 -125 56q-37 50 -37 216q0 164 37 216q40 55 125 55q70 0 111 -38q42 -40 47 -124h-105q-2 34 -14 49q-13 19 -39 19q-27 0 -41 -22q-15 -26 -15 -155t15 -156q13 -21 41 -21q26 0 39 18q12 17 14 50h105z" />
    <glyph glyph-name="afii10084" unicode="&#x442;" horiz-adv-x="337" 
d="M316 432h-96v-432h-106v432h-97v95h299v-95z" />
    <glyph glyph-name="afii10085" unicode="&#x443;" horiz-adv-x="382" 
d="M377 527l-148 -594q-18 -73 -65.5 -95.5t-131.5 -22.5v94q28 1 43 3.5t30 15t21 36.5l9 37l-131 526h117l70 -359l69 359h117z" />
    <glyph glyph-name="afii10086" unicode="&#x444;" horiz-adv-x="554" 
d="M518 264q0 -151 -46 -208t-142 -60v-181h-105v181q-97 3 -142 60q-47 57 -47 208q0 149 46 205q48 59 143 62v181h105v-181q96 -3 142 -60q46 -56 46 -207zM412 264q0 119 -26 148q-22 23 -58 25v-347q38 2 58 25q26 30 26 149zM227 90v347q-37 0 -58 -25
q-27 -32 -27 -148q0 -118 27 -149q19 -23 58 -25z" />
    <glyph glyph-name="afii10087" unicode="&#x445;" horiz-adv-x="390" 
d="M382 0h-118l-69 164l-69 -164h-117l124 268l-118 259h117l63 -160l63 160h118l-120 -259z" />
    <glyph glyph-name="afii10088" unicode="&#x446;" horiz-adv-x="434" 
d="M413 -134h-96v134h-265v527h106v-432h99v432h106v-432h50v-229z" />
    <glyph glyph-name="afii10089" unicode="&#x447;" horiz-adv-x="393" 
d="M341 0h-106v173q-25 -4 -60 -4q-71 0 -105 31t-34 104v223h106v-208q0 -32 12 -44.5t38 -12.5q18 0 43 5v260h106v-527z" />
    <glyph glyph-name="afii10090" unicode="&#x448;" horiz-adv-x="594" 
d="M542 0h-490v527h106v-433h86v433h106v-433h86v433h106v-527z" />
    <glyph glyph-name="afii10091" unicode="&#x449;" horiz-adv-x="594" 
d="M542 527v-432h43v-229h-96v134h-437v527h106v-433h86v433h106v-433h86v433h106z" />
    <glyph glyph-name="afii10092" unicode="&#x44a;" horiz-adv-x="442" 
d="M17 433v94h189v-189h53q85 0 121 -40.5t36 -128.5t-36 -128.5t-121 -40.5h-159v433h-83zM310 169q0 40 -13 57.5t-43 17.5h-48v-150h48q30 0 43 17.5t13 57.5z" />
    <glyph glyph-name="afii10093" unicode="&#x44b;" horiz-adv-x="581" 
d="M529 0h-106v527h106v-527zM368 169q0 -88 -36 -128.5t-121 -40.5h-159v527h106v-189h53q85 0 121 -40.5t36 -128.5zM262 169q0 40 -13 57.5t-43 17.5h-48v-150h48q30 0 43 17.5t13 57.5z" />
    <glyph glyph-name="afii10094" unicode="&#x44c;" horiz-adv-x="399" 
d="M368 169q0 -88 -36 -128.5t-121 -40.5h-159v527h106v-189h53q85 0 121 -40.5t36 -128.5zM262 169q0 40 -13 57.5t-43 17.5h-48v-150h48q30 0 43 17.5t13 57.5z" />
    <glyph glyph-name="afii10095" unicode="&#x44d;" horiz-adv-x="385" 
d="M140 224v88h103q-2 84 -15 107q-14 22 -41 22q-26 0 -39 -19q-12 -15 -14 -49h-105q6 85 47 125q40 37 111 37q85 0 125 -55q37 -52 37 -216q0 -166 -37 -216q-40 -56 -125 -56q-73 0 -112 39q-41 41 -46 124h105q2 -35 14 -50q13 -18 39 -18q27 0 41 21q13 24 15 116
h-103z" />
    <glyph glyph-name="afii10096" unicode="&#x44e;" horiz-adv-x="593" 
d="M159 0h-106v527h106v-210h73q3 117 37 163q40 55 125 55t125 -55q37 -52 37 -216t-37 -216q-40 -56 -125 -56t-125 56q-35 48 -37 174h-73v-222zM450 264q0 129 -15 155q-14 22 -41 22t-41 -22q-15 -26 -15 -155q0 -130 15 -156q13 -21 41 -21q27 0 41 21q15 26 15 156z
" />
    <glyph glyph-name="afii10097" unicode="&#x44f;" horiz-adv-x="401" 
d="M349 0h-106v201h-41l-70 -201h-110l83 223q-66 36 -66 142q0 81 35 121.5t120 40.5h155v-527zM243 295v138h-48q-29 0 -39.5 -17.5t-10.5 -50.5q0 -70 50 -70h48z" />
    <glyph glyph-name="uni0450" unicode="&#x450;" horiz-adv-x="394" 
d="M360 233h-218q0 -100 16 -125q14 -21 41 -21q26 0 40 20q13 16 13 48h106q-3 -77 -45 -121q-39 -42 -114 -42q-72 0 -114 43q-30 31 -39.5 87t-9.5 142t9.5 142t39.5 87q41 42 113 42q71 0 113 -42q29 -29 39 -91t10 -169zM254 311q0 87 -15 109q-15 21 -41 21t-41 -21
q-15 -22 -15 -109h112zM245 587h-74l-88 139h90z" />
    <glyph glyph-name="afii10071" unicode="&#x451;" horiz-adv-x="394" 
d="M360 233h-218q0 -100 16 -125q14 -21 41 -21q26 0 40 20q13 16 13 48h106q-3 -77 -45 -121q-39 -42 -114 -42q-72 0 -114 43q-30 31 -39.5 87t-9.5 142t9.5 142t39.5 87q41 42 113 42q71 0 113 -42q29 -29 39 -91t10 -169zM254 311q0 87 -15 109q-15 21 -41 21t-41 -21
q-15 -22 -15 -109h112zM337 597h-100v100h100v-100zM161 597h-99v100h99v-100z" />
    <glyph glyph-name="afii10099" unicode="&#x452;" horiz-adv-x="417" 
d="M306 588h-148v-95q13 18 31 28q23 14 53 14q61 0 96 -41q30 -34 30 -114v-401q0 -84 -52 -125q-42 -31 -122 -31v94q36 0 52 15.5t16 52.5v394q0 30 -14.5 45.5t-37.5 15.5t-37.5 -15.5t-14.5 -45.5v-379h-106v588h-49v67h49v57h106v-57h148v-67z" />
    <glyph glyph-name="afii10100" unicode="&#x453;" horiz-adv-x="340" 
d="M323 527v-94h-165v-433h-106v527h271zM310 726l-88 -139h-74l72 139h90z" />
    <glyph glyph-name="afii10101" unicode="&#x454;" horiz-adv-x="385" 
d="M356 155q-5 -83 -46 -124q-39 -39 -112 -39q-85 0 -125 56q-37 50 -37 216q0 164 37 216q40 55 125 55q70 0 111 -38q42 -40 47 -124h-105q-2 34 -14 49q-13 19 -39 19q-27 0 -41 -22q-13 -23 -15 -107h103v-88h-103q0 -91 15 -116q13 -21 41 -21q26 0 39 18q12 17 14 50
h105z" />
    <glyph glyph-name="afii10102" unicode="&#x455;" horiz-adv-x="380" 
d="M352 152q0 -70 -47 -117q-43 -43 -115 -43q-75 0 -116 43q-47 49 -47 119h105q0 -32 18 -50q15 -16 40 -16t41 15q15 13 15 42q0 23 -11 39q-12 18 -41 30l-70 31q-54 24 -77 61q-17 27 -17 72q0 65 46 113q44 44 114 44q69 0 111 -40q45 -43 45 -117h-104q0 32 -15 48
t-37 16q-24 0 -39 -15t-15 -40q0 -19 8 -31q11 -18 39 -30l70 -30q54 -24 77 -58q22 -31 22 -86z" />
    <glyph glyph-name="afii10103" unicode="&#x456;" horiz-adv-x="210" 
d="M158 0h-106v513h106v-513zM163 594h-117v117h117v-117z" />
    <glyph glyph-name="afii10104" unicode="&#x457;" horiz-adv-x="210" 
d="M158 0h-106v513h106v-513zM244 597h-100v100h100v-100zM68 597h-99v100h99v-100z" />
    <glyph glyph-name="afii10105" unicode="&#x458;" horiz-adv-x="209" 
d="M158 -25q0 -86 -54 -127q-43 -33 -124 -33v95q37 0 54.5 16t17.5 55v532h106v-538zM163 594h-117v117h117v-117z" />
    <glyph glyph-name="afii10106" unicode="&#x459;" horiz-adv-x="627" 
d="M600 169q0 -88 -36 -128.5t-121 -40.5h-159v432h-85v-215q0 -124 -36 -170.5t-116 -46.5h-34v91h16q21 0 33.5 7t23.5 39.5t11 93.5v296h293v-189h53q85 0 121 -40.5t36 -128.5zM494 169q0 40 -13 57.5t-43 17.5h-48v-150h48q30 0 43 17.5t13 57.5z" />
    <glyph glyph-name="afii10107" unicode="&#x45a;" horiz-adv-x="601" 
d="M574 169q0 -88 -36 -128.5t-121 -40.5h-159v244h-100v-244h-106v527h106v-188h100v188h106v-189h53q85 0 121 -40.5t36 -128.5zM468 169q0 40 -13 57.5t-43 17.5h-48v-150h48q30 0 43 17.5t13 57.5z" />
    <glyph glyph-name="afii10108" unicode="&#x45b;" horiz-adv-x="417" 
d="M368 0h-106v379q0 30 -14.5 45.5t-37.5 15.5t-37.5 -15.5t-14.5 -45.5v-379h-106v588h-49v67h49v57h106v-57h148v-67h-148v-95q13 18 31 28q23 14 53 14q61 0 96 -41q30 -34 30 -114v-380z" />
    <glyph glyph-name="afii10109" unicode="&#x45c;" horiz-adv-x="419" 
d="M414 0h-118l-136 275l125 252h114l-130 -249zM159 0h-106v527h106v-527zM355 726l-88 -139h-74l72 139h90z" />
    <glyph glyph-name="uni045D" unicode="&#x45d;" horiz-adv-x="424" 
d="M372 0h-106v300l-120 -300h-94v527h106v-300l120 300h94v-527zM251 587h-74l-88 139h90z" />
    <glyph glyph-name="afii10110" unicode="&#x45e;" horiz-adv-x="382" 
d="M377 527l-148 -594q-18 -73 -65.5 -95.5t-131.5 -22.5v94q28 1 43 3.5t30 15t21 36.5l9 37l-131 526h117l70 -359l69 359h117zM320 701q-2 -61 -37.5 -88t-90.5 -27t-91 27t-37 88h75q3 -46 53 -46q49 0 53 46h75z" />
    <glyph glyph-name="afii10193" unicode="&#x45f;" horiz-adv-x="415" 
d="M363 0h-108v-134h-95v134h-108v527h106v-432h99v432h106v-527z" />
    <glyph glyph-name="afii10146" unicode="&#x462;" horiz-adv-x="475" 
d="M77 537h-51v88h51v87h112v-87h70v-88h-70v-104h67q96 0 139.5 -52t43.5 -164q0 -113 -43.5 -165t-139.5 -52h-179v537zM327 217q0 58 -16 86.5t-59 28.5h-63v-231h63q43 0 59 29t16 87z" />
    <glyph glyph-name="afii10194" unicode="&#x463;" horiz-adv-x="412" 
d="M385 169q0 -88 -36 -128.5t-121 -40.5h-159v408h-49v67h49v52h106v-52h86v-67h-86v-70h53q85 0 121 -40.5t36 -128.5zM279 169q0 40 -13 57.5t-43 17.5h-48v-150h48q30 0 43 17.5t13 57.5z" />
    <glyph glyph-name="afii10147" unicode="&#x472;" horiz-adv-x="462" 
d="M421 356q0 -139 -9 -201.5t-43 -101.5q-51 -61 -138 -61t-138 61q-33 40 -42.5 102.5t-9.5 200.5t9.5 200.5t42.5 102.5q51 61 138 61t138 -61q34 -39 43 -101.5t9 -201.5zM285 120q22 36 24 188h-156q2 -150 25 -188q17 -27 53 -27q37 0 54 27zM178 592
q-24 -38 -25 -183h156q-2 147 -24 183q-17 27 -54 27q-36 0 -53 -27z" />
    <glyph glyph-name="afii10195" unicode="&#x473;" 
d="M360 264q0 -164 -37 -216q-40 -56 -125 -56t-125 56q-37 52 -37 216t37 216q40 55 125 55t125 -55q37 -52 37 -216zM239 108q13 22 15 124h-112q0 -99 15 -124q13 -21 41 -21t41 21zM157 419q-13 -23 -15 -108h112q-2 85 -15 108q-14 22 -41 22t-41 -22z" />
    <glyph glyph-name="afii10148" unicode="&#x474;" horiz-adv-x="490" 
d="M218 172l68 399q14 79 55.5 110t135.5 31v-100q-66 -3 -82 -73l-119 -539h-116l-156 712h123z" />
    <glyph glyph-name="afii10196" unicode="&#x475;" horiz-adv-x="452" 
d="M340 378l-93 -378h-112l-131 527h117l70 -359l41 217q16 84 60.5 113t142.5 29v-94q-28 -1 -43.5 -3.5t-30.5 -15t-21 -36.5z" />
    <glyph glyph-name="afii10050" unicode="&#x490;" horiz-adv-x="376" 
d="M354 611h-182v-611h-112v712h188v124h106v-225z" />
    <glyph glyph-name="afii10098" unicode="&#x491;" horiz-adv-x="340" 
d="M323 433h-165v-433h-106v527h175v132h96v-226z" />
    <glyph glyph-name="uni0492" unicode="&#x492;" horiz-adv-x="393" 
d="M371 611h-182v-209h70v-88h-70v-314h-112v314h-51v88h51v310h294v-101z" />
    <glyph glyph-name="uni0493" unicode="&#x493;" horiz-adv-x="357" 
d="M340 433h-165v-98h86v-67h-86v-268h-106v268h-49v67h49v192h271v-94z" />
    <glyph glyph-name="uni0496" unicode="&#x496;" horiz-adv-x="714" 
d="M608 -143v143h-18l-173 371l160 341h118l-163 -336l133 -275h49v-244h-106zM128 0h-124l182 376l-163 336h118l160 -341zM415 0h-112v712h112v-712z" />
    <glyph glyph-name="uni0497" unicode="&#x497;" horiz-adv-x="624" 
d="M605 527l-130 -249l96 -183h49v-229h-96v134h-22l-136 275l124 252h115zM258 275l-135 -275h-119l145 278l-130 249h115zM365 0h-106v527h106v-527z" />
    <glyph glyph-name="uni049A" unicode="&#x49a;" horiz-adv-x="476" 
d="M364 -143v143h-18l-173 371l160 341h118l-163 -336l133 -275h49v-244h-106zM171 0h-112v712h112v-712z" />
    <glyph glyph-name="uni049B" unicode="&#x49b;" horiz-adv-x="418" 
d="M399 527l-130 -249l95 -183h50v-229h-96v134h-22l-136 275l125 252h114zM159 0h-106v527h106v-527z" />
    <glyph glyph-name="uni049C" unicode="&#x49c;" horiz-adv-x="559" 
d="M553 0h-124l-116 322h-29v-104h-78v104h-34v-322h-112v712h112v-289h34v104h78v-104h30l101 289h119l-123 -335z" />
    <glyph glyph-name="uni049D" unicode="&#x49d;" horiz-adv-x="486" 
d="M481 0h-119l-82 228h-26v-110h-65v110h-30v-228h-106v527h106v-205h30v110h65v-110h25l72 205h115l-92 -248z" />
    <glyph glyph-name="uni04A2" unicode="&#x4a2;" horiz-adv-x="483" 
d="M367 -143v143h-56v311h-139v-311h-112v712h112v-300h139v300h112v-611h50v-244h-106z" />
    <glyph glyph-name="uni04A3" unicode="&#x4a3;" horiz-adv-x="415" 
d="M363 527v-432h43v-229h-96v134h-53v222h-99v-222h-106v527h106v-211h99v211h106z" />
    <glyph glyph-name="uni04AE" unicode="&#x4ae;" horiz-adv-x="389" 
d="M388 712l-138 -433v-279h-112v279l-138 433h124l70 -282l71 282h123z" />
    <glyph glyph-name="uni04AF" unicode="&#x4af;" horiz-adv-x="382" 
d="M377 527l-130 -526v-185h-112v185l-131 526h117l70 -359l69 359h117z" />
    <glyph glyph-name="uni04B0" unicode="&#x4b0;" horiz-adv-x="389" 
d="M388 712l-138 -433h61v-88h-61v-191h-112v191h-60v88h60l-138 433h124l70 -282l71 282h123z" />
    <glyph glyph-name="uni04B1" unicode="&#x4b1;" horiz-adv-x="382" 
d="M247 -66v-118h-112v118h-64v67h64l-131 526h117l70 -359l69 359h117l-130 -526h65v-67h-65z" />
    <glyph glyph-name="uni04B2" unicode="&#x4b2;" horiz-adv-x="432" 
d="M315 -143v143h-17l-82 256l-82 -256h-123l141 369l-130 343h123l71 -238l71 238h123l-133 -343l105 -268h39v-244h-106z" />
    <glyph glyph-name="uni04B3" unicode="&#x4b3;" horiz-adv-x="390" 
d="M376 527l-120 -259l81 -173h45v-229h-96v134h-22l-69 164l-69 -164h-117l124 268l-118 259h117l63 -160l63 160h118z" />
    <glyph glyph-name="uni04B6" unicode="&#x4b6;" horiz-adv-x="471" 
d="M355 -143v143h-55v246q-36 -5 -82 -5q-88 0 -126.5 39.5t-38.5 133.5v298h112v-287q0 -48 16.5 -66t54.5 -18q25 0 63 5v366h112v-611h50v-244h-106z" />
    <glyph glyph-name="uni04B7" unicode="&#x4b7;" horiz-adv-x="392" 
d="M341 527v-432h43v-229h-96v134h-53v173q-25 -4 -60 -4q-71 0 -105 31t-34 104v223h106v-208q0 -32 12 -44.5t38 -12.5q18 0 43 5v260h106z" />
    <glyph glyph-name="uni04B8" unicode="&#x4b8;" horiz-adv-x="507" 
d="M289 136h-78v105q-84 7 -121 47.5t-37 125.5v298h111v-286q0 -64 47 -78v96h78v-103q18 0 46 5v366h112v-712h-112v246q-33 -4 -46 -5v-105z" />
    <glyph glyph-name="uni04B9" unicode="&#x4b9;" horiz-adv-x="428" 
d="M239 58h-64v111q-72 5 -105.5 37t-33.5 98v223h108v-208q0 -39 31 -50v103h64v-109q16 0 31 4v260h106v-527h-106v173q-20 -4 -31 -4v-111z" />
    <glyph glyph-name="uni04BA" unicode="&#x4ba;" horiz-adv-x="471" 
d="M60 712h111v-246q36 5 82 5q88 0 126.5 -39.5t38.5 -133.5v-298h-112v287q0 48 -16.5 66t-54.5 18q-25 0 -63 -5v-366h-112v712z" />
    <glyph glyph-name="uni04BB" unicode="&#x4bb;" horiz-adv-x="393" 
d="M52 527h106v-173q25 4 60 4q71 0 105 -31t34 -104v-223h-106v208q0 32 -12 44.5t-38 12.5q-18 0 -43 -5v-260h-106v527z" />
    <glyph glyph-name="uni04C0" unicode="&#x4c0;" horiz-adv-x="232" 
d="M172 0h-112v712h112v-712z" />
    <glyph glyph-name="uni04CF" unicode="&#x4cf;" horiz-adv-x="204" 
d="M155 0h-106v712h106v-712z" />
    <glyph glyph-name="uni04D8" unicode="&#x4d8;" horiz-adv-x="455" 
d="M40 190v197h260q-1 90 -6 136.5t-19 68.5q-17 27 -53 27q-68 0 -70 -96h-112q3 96 55 149q48 48 127 48q87 0 138 -61q33 -40 42.5 -102.5t9.5 -200.5t-9.5 -200.5t-42.5 -102.5q-51 -61 -138 -61q-83 0 -132.5 51.5t-49.5 146.5zM152 295v-111q0 -40 17.5 -65.5
t52.5 -25.5q36 0 53 27q23 37 25 175h-148z" />
    <glyph glyph-name="afii10846" unicode="&#x4d9;" horiz-adv-x="394" 
d="M36 294h218q0 100 -16 125q-14 21 -41 21q-26 0 -40 -20q-13 -16 -13 -48h-106q3 77 45 121q39 42 114 42q72 0 114 -43q30 -31 39.5 -87t9.5 -142t-9.5 -142t-39.5 -87q-41 -42 -113 -42q-71 0 -113 42q-29 29 -39 91.5t-10 168.5zM142 216q0 -87 15 -109q15 -21 41 -21
t41 21q15 22 15 109h-112z" />
    <glyph glyph-name="uni04E2" unicode="&#x4e2;" horiz-adv-x="491" 
d="M159 0h-99v712h112v-436l159 436h100v-712h-112v436zM368 776h-245v70h245v-70z" />
    <glyph glyph-name="uni04E3" unicode="&#x4e3;" horiz-adv-x="424" 
d="M372 0h-106v300l-120 -300h-94v527h106v-300l120 300h94v-527zM335 604h-246v71h246v-71z" />
    <glyph glyph-name="uni04E8" unicode="&#x4e8;" horiz-adv-x="462" 
d="M421 356q0 -139 -9 -201.5t-43 -101.5q-51 -61 -138 -61t-138 61q-33 40 -42.5 102.5t-9.5 200.5t9.5 200.5t42.5 102.5q51 61 138 61t138 -61q34 -39 43 -101.5t9 -201.5zM285 120q22 36 24 188h-156q2 -150 25 -188q17 -27 53 -27q37 0 54 27zM178 592
q-24 -38 -25 -183h156q-2 147 -24 183q-17 27 -54 27q-36 0 -53 -27z" />
    <glyph glyph-name="uni04E9" unicode="&#x4e9;" 
d="M360 264q0 -164 -37 -216q-40 -56 -125 -56t-125 56q-37 52 -37 216t37 216q40 55 125 55t125 -55q37 -52 37 -216zM239 108q13 22 15 124h-112q0 -99 15 -124q13 -21 41 -21t41 21zM157 419q-13 -23 -15 -108h112q-2 85 -15 108q-14 22 -41 22t-41 -22z" />
    <glyph glyph-name="uni04EE" unicode="&#x4ee;" horiz-adv-x="423" 
d="M419 712l-188 -591q-24 -74 -62 -97.5t-125 -23.5v100q46 0 67 15.5t33 57.5l16 58l-156 481h122l86 -329l85 329h122zM335 776h-245v70h245v-70z" />
    <glyph glyph-name="uni04EF" unicode="&#x4ef;" horiz-adv-x="382" 
d="M315 604h-246v71h246v-71zM377 527l-148 -594q-18 -73 -65.5 -95.5t-131.5 -22.5v94q28 1 43 3.5t30 15t21 36.5l9 37l-131 526h117l70 -359l69 359h117z" />
    <glyph glyph-name="Wgrave" unicode="&#x1e80;" horiz-adv-x="714" 
d="M710 712l-134 -712h-117l-102 541l-101 -541h-117l-135 712h123l70 -540l98 540h124l99 -540l69 540h123zM403 760h-74l-88 139h90z" />
    <glyph glyph-name="wgrave" unicode="&#x1e81;" horiz-adv-x="577" 
d="M573 527l-118 -527h-105l-63 342l-62 -342h-105l-116 527h118l55 -359l65 359h91l66 -359l55 359h119zM321 587h-74l-88 139h90z" />
    <glyph glyph-name="Wacute" unicode="&#x1e82;" horiz-adv-x="714" 
d="M710 712l-134 -712h-117l-102 541l-101 -541h-117l-135 712h123l70 -540l98 540h124l99 -540l69 540h123zM473 899l-87 -139h-74l72 139h89z" />
    <glyph glyph-name="wacute" unicode="&#x1e83;" horiz-adv-x="577" 
d="M573 527l-118 -527h-105l-63 342l-62 -342h-105l-116 527h118l55 -359l65 359h91l66 -359l55 359h119zM411 726l-88 -139h-74l72 139h90z" />
    <glyph glyph-name="Wdieresis" unicode="&#x1e84;" horiz-adv-x="714" 
d="M710 712l-134 -712h-117l-102 541l-101 -541h-117l-135 712h123l70 -540l98 540h124l99 -540l69 540h123zM495 770h-100v100h100v-100zM320 770h-100v100h100v-100z" />
    <glyph glyph-name="wdieresis" unicode="&#x1e85;" horiz-adv-x="577" 
d="M573 527l-118 -527h-105l-63 342l-62 -342h-105l-116 527h118l55 -359l65 359h91l66 -359l55 359h119zM425 597h-100v100h100v-100zM249 597h-99v100h99v-100z" />
    <glyph glyph-name="uni1E8A" unicode="&#x1e8a;" horiz-adv-x="432" 
d="M421 0h-123l-82 256l-82 -256h-123l141 369l-130 343h123l71 -238l71 238h123l-133 -343zM266 770h-99v100h99v-100z" />
    <glyph glyph-name="uni1E8B" unicode="&#x1e8b;" horiz-adv-x="391" 
d="M382 0h-118l-69 164l-69 -164h-117l124 268l-118 259h117l63 -160l63 160h118l-120 -259zM245 598h-100v100h100v-100z" />
    <glyph glyph-name="Ygrave" unicode="&#x1ef2;" horiz-adv-x="389" 
d="M388 712l-138 -433v-279h-112v279l-138 433h124l70 -282l71 282h123zM240 760h-74l-88 139h90z" />
    <glyph glyph-name="ygrave" unicode="&#x1ef3;" horiz-adv-x="382" 
d="M377 527l-148 -594q-18 -73 -65.5 -95.5t-131.5 -22.5v94q28 1 43 3.5t30 15t21 36.5l9 37l-131 526h117l70 -359l69 359h117zM237 587h-74l-88 139h90z" />
    <glyph glyph-name="uni2007" unicode="&#x2007;" horiz-adv-x="401" 
 />
    <glyph glyph-name="uni2008" unicode="&#x2008;" horiz-adv-x="234" 
 />
    <glyph glyph-name="uni200B" unicode="&#x200b;" horiz-adv-x="0" 
 />
    <glyph glyph-name="endash" unicode="&#x2013;" horiz-adv-x="457" 
d="M413 238h-369v101h369v-101z" />
    <glyph glyph-name="emdash" unicode="&#x2014;" horiz-adv-x="711" 
d="M665 238h-618v101h618v-101z" />
    <glyph glyph-name="afii00208" unicode="&#x2015;" horiz-adv-x="711" 
d="M665 238h-618v101h618v-101z" />
    <glyph glyph-name="quoteleft" unicode="&#x2018;" horiz-adv-x="229" 
d="M172 588h-115v124l115 85v-209z" />
    <glyph glyph-name="quoteright" unicode="&#x2019;" horiz-adv-x="229" 
d="M172 588l-115 -86v210h115v-124z" />
    <glyph glyph-name="quotesinglbase" unicode="&#x201a;" horiz-adv-x="229" 
d="M172 0l-115 -85v209h115v-124z" />
    <glyph glyph-name="quotedblleft" unicode="&#x201c;" horiz-adv-x="418" 
d="M361 588h-116v124l116 85v-209zM172 588h-115v124l115 85v-209z" />
    <glyph glyph-name="quotedblright" unicode="&#x201d;" horiz-adv-x="418" 
d="M361 588l-116 -86v210h116v-124zM172 588l-115 -86v210h115v-124z" />
    <glyph glyph-name="quotedblbase" unicode="&#x201e;" horiz-adv-x="418" 
d="M361 -6l-116 -85v209h116v-124zM172 -6l-115 -85v209h115v-124z" />
    <glyph glyph-name="dagger" unicode="&#x2020;" horiz-adv-x="449" 
d="M405 439h-131v-439h-99v439h-131v88h131v185h99v-185h131v-88z" />
    <glyph glyph-name="daggerdbl" unicode="&#x2021;" horiz-adv-x="449" 
d="M405 0h-131v-185h-99v185h-131v89h131v350h-131v88h131v185h99v-185h131v-88h-131v-350h131v-89z" />
    <glyph glyph-name="bullet" unicode="&#x2022;" horiz-adv-x="446" 
d="M386 334q0 -68 -48 -115.5t-115 -47.5t-115 47.5t-48 115.5t48 115.5t115 47.5t115 -47.5t48 -115.5z" />
    <glyph glyph-name="ellipsis" unicode="&#x2026;" horiz-adv-x="654" 
d="M599 0h-123v123h123v-123zM389 0h-123v123h123v-123zM179 0h-123v123h123v-123z" />
    <glyph glyph-name="perthousand" unicode="&#x2030;" horiz-adv-x="1050" 
d="M685 112q0 -57 -36.5 -88.5t-90.5 -31.5t-90.5 31.5t-36.5 88.5v133q0 57 36.5 88.5t90.5 31.5t90.5 -31.5t36.5 -88.5v-133zM301 467q0 -57 -36.5 -88.5t-90.5 -31.5t-90.5 31.5t-36.5 88.5v133q0 57 36.5 88.5t90.5 31.5t90.5 -31.5t36.5 -88.5v-133zM1003 112
q0 -57 -36 -88.5t-90 -31.5t-90.5 31.5t-36.5 88.5v133q0 57 36.5 88.5t90.5 31.5t90 -31.5t36 -88.5v-133zM532 712l-248 -712h-82l248 712h82zM214 469v129q0 45 -40 45q-41 0 -41 -45v-129q0 -45 41 -45q40 0 40 45zM917 114v129q0 45 -40 45q-41 0 -41 -45v-129
q0 -45 41 -45q40 0 40 45zM598 114v129q0 45 -40 45t-40 -45v-129q0 -45 40 -45t40 45z" />
    <glyph glyph-name="guilsinglleft" unicode="&#x2039;" horiz-adv-x="231" 
d="M185 27l-161 249l161 248v-158l-61 -90l61 -92v-157z" />
    <glyph glyph-name="guilsinglright" unicode="&#x203a;" horiz-adv-x="231" 
d="M207 276l-160 -249v157l60 92l-60 90v158z" />
    <glyph glyph-name="fraction" unicode="&#x2044;" horiz-adv-x="188" 
d="M258 712l-246 -712h-82l246 712h82z" />
    <glyph glyph-name="uni2070" unicode="&#x2070;" horiz-adv-x="323" 
d="M280 386q0 -49 -32 -79q-30 -27 -87 -27q-56 0 -86 27q-32 30 -32 79v225q0 50 32 79q30 27 86 27q57 0 87 -27q32 -29 32 -79v-225zM203 382v233q0 42 -42 42t-42 -42v-233q0 -42 43 -42q41 0 41 42z" />
    <glyph glyph-name="uni2074" unicode="&#x2074;" horiz-adv-x="322" 
d="M285 348h-33v-63h-77v63h-146v60l109 304h73l-106 -304h70v70h77v-70h33v-60z" />
    <glyph glyph-name="uni2075" unicode="&#x2075;" horiz-adv-x="322" 
d="M284 426q0 -46 -6.5 -72.5t-29.5 -45.5q-32 -28 -85 -28t-85 27q-31 27 -31 76v18h83v-19q0 -42 33 -42q21 0 31 10q13 14 13 76t-13 75q-10 10 -30 10q-15 0 -24.5 -9.5t-9.5 -25.5v-7h-80v243h228v-60h-151v-107q12 13 27 21q11 7 37 7q44 0 70 -26q23 -26 23 -121z
" />
    <glyph glyph-name="uni2076" unicode="&#x2076;" horiz-adv-x="322" 
d="M274 416q0 -64 -23 -97q-28 -39 -94 -39q-65 0 -91 39q-24 35 -24 97q0 49 18 94l80 202h86l-71 -168q10 5 26 5q42 0 67 -29q26 -32 26 -104zM197 419q0 54 -11 67q-9 12 -28 12t-28 -12q-11 -13 -11 -67t11 -67q9 -12 28 -12t28 12q11 13 11 67z" />
    <glyph glyph-name="uni2077" unicode="&#x2077;" horiz-adv-x="322" 
d="M283 650l-107 -365h-77l108 367h-100v-60h-70v120h246v-62z" />
    <glyph glyph-name="uni2078" unicode="&#x2078;" horiz-adv-x="322" 
d="M276 407q0 -36 -6 -57.5t-28 -41.5q-29 -28 -82 -28t-82 28q-22 20 -28 41.5t-6 57.5q0 43 13 69q8 13 29 31q-17 10 -26 27q-12 24 -12 64q0 64 33 93q30 26 79 26q50 0 80 -26q33 -29 33 -93q0 -40 -13 -64q-10 -18 -25 -27q22 -17 29 -31q12 -22 12 -69zM199 408
q0 48 -10 58t-29 10t-29 -10t-10 -58t10 -58t29 -10t29 10t10 58zM196 596q0 43 -9 52t-27 9q-17 0 -26 -9t-9 -52t9 -52t26 -9q18 0 27 9t9 52z" />
    <glyph glyph-name="uni2079" unicode="&#x2079;" horiz-adv-x="322" 
d="M275 581q0 -49 -18 -94l-79 -202h-87l71 168q-10 -5 -26 -5q-43 0 -66 29q-26 32 -26 104q0 64 23 97q28 39 94 39q63 0 91 -39q23 -33 23 -97zM199 578q0 54 -11 67q-9 12 -29 12q-19 0 -28 -12q-10 -15 -10 -67t10 -67q9 -12 28 -12q20 0 29 12q11 13 11 67z" />
    <glyph glyph-name="uni2080" unicode="&#x2080;" horiz-adv-x="323" 
d="M280 -49q0 -49 -32 -79q-30 -27 -87 -27q-56 0 -86 27q-32 30 -32 79v225q0 50 32 79q30 27 86 27q57 0 87 -27q32 -29 32 -79v-225zM203 -53v233q0 42 -42 42t-42 -42v-233q0 -42 43 -42q41 0 41 42z" />
    <glyph glyph-name="uni2081" unicode="&#x2081;" horiz-adv-x="322" 
d="M223 -150h-77v349l-74 -47v76l75 49h76v-427z" />
    <glyph glyph-name="uni2082" unicode="&#x2082;" horiz-adv-x="321" 
d="M279 -150h-231v56l133 203q20 32 20 72q0 19 -11 30t-29 11q-41 0 -41 -43v-30h-77v28q0 51 33 78q32 27 85 27q50 0 82 -24q36 -29 36 -79q0 -46 -30 -92l-118 -178h148v-59z" />
    <glyph glyph-name="uni2083" unicode="&#x2083;" horiz-adv-x="321" 
d="M282 -30q0 -39 -6 -60t-28 -38q-30 -27 -85 -27q-52 0 -86 28q-31 25 -31 80v18h77v-20q0 -25 10 -35q13 -11 30 -11q19 0 30 11q12 15 12 59q0 43 -11 57q-10 13 -32 13h-25v57h25q18 0 27 9q13 12 13 56q0 35 -11 45q-10 10 -28 10t-28 -10t-10 -31v-24h-77v20
q0 52 32 78q31 27 83 27q53 0 82 -26q34 -30 34 -88q0 -43 -15 -67q-12 -19 -31 -27q22 -12 34 -30q15 -26 15 -74z" />
    <glyph glyph-name="uni2084" unicode="&#x2084;" horiz-adv-x="322" 
d="M285 -87h-34v-63h-76v63h-146v60l109 304h73l-106 -304h70v70h76v-70h34v-60z" />
    <glyph glyph-name="uni2085" unicode="&#x2085;" horiz-adv-x="322" 
d="M284 -9q0 -46 -6.5 -72.5t-29.5 -45.5q-32 -28 -85 -28t-85 27q-31 27 -31 76v18h83v-19q0 -42 33 -42q21 0 31 10q13 14 13 76t-13 75q-10 10 -30 10q-15 0 -24.5 -9.5t-9.5 -25.5v-7h-80v243h228v-60h-151v-107q12 13 27 21q11 7 37 7q44 0 70 -26q23 -26 23 -121z" />
    <glyph glyph-name="uni2086" unicode="&#x2086;" horiz-adv-x="322" 
d="M274 -19q0 -64 -23 -97q-28 -39 -94 -39q-65 0 -91 39q-24 35 -24 97q0 49 18 94l80 202h86l-71 -168q10 5 26 5q42 0 67 -29q26 -32 26 -104zM197 -16q0 54 -11 67q-9 12 -28 12t-28 -12q-11 -13 -11 -67t11 -67q9 -12 28 -12t28 12q11 13 11 67z" />
    <glyph glyph-name="uni2087" unicode="&#x2087;" horiz-adv-x="322" 
d="M283 215l-107 -365h-77l108 367h-100v-60h-70v120h246v-62z" />
    <glyph glyph-name="uni2088" unicode="&#x2088;" horiz-adv-x="322" 
d="M276 -28q0 -36 -6 -57.5t-28 -41.5q-29 -28 -82 -28t-82 28q-22 20 -28 41.5t-6 57.5q0 43 13 69q8 13 29 31q-17 10 -26 27q-12 24 -12 64q0 64 33 93q30 26 79 26q50 0 80 -26q33 -29 33 -93q0 -40 -13 -64q-10 -18 -25 -27q22 -17 29 -31q12 -22 12 -69zM199 -27
q0 48 -10 58t-29 10t-29 -10t-10 -58t10 -58t29 -10t29 10t10 58zM196 161q0 41 -9 52q-11 9 -27 9t-26 -9q-9 -11 -9 -52q0 -42 9 -52q10 -9 26 -9t27 9q9 10 9 52z" />
    <glyph glyph-name="uni2089" unicode="&#x2089;" horiz-adv-x="322" 
d="M275 146q0 -49 -18 -94l-79 -202h-87l71 168q-10 -5 -26 -5q-43 0 -66 29q-26 32 -26 104q0 64 23 97q28 39 94 39q63 0 91 -39q23 -33 23 -97zM199 143q0 54 -11 67q-9 12 -29 12t-27 -12q-11 -13 -11 -67t11 -67q7 -12 27 -12t29 12q11 13 11 67z" />
    <glyph glyph-name="Euro" unicode="&#x20ac;" horiz-adv-x="498" 
d="M459 189q-3 -101 -59 -152q-50 -45 -123 -45q-84 0 -137 60q-47 53 -50 183h-58v81h56v80h-56v81h58q3 129 50 183q53 60 137 60q76 0 125 -46q54 -51 57 -150h-112q-2 95 -70 95q-38 0 -55 -27q-18 -28 -19 -115h106v-81h-109v-80h109v-81h-106q1 -88 20 -115
q18 -27 54 -27q68 0 70 96h112z" />
    <glyph glyph-name="uni20B4" unicode="&#x20b4;" horiz-adv-x="442" 
d="M36 235h-36v81h51q21 51 89 80h-140v81h280q6 18 6 50q0 48 -19 70q-18 20 -48 20q-34 0 -50 -21q-17 -22 -17 -76h-112q0 106 50 155q45 43 128 43q73 0 122 -43q58 -52 58 -151q0 -19 -2 -47h37v-81h-63q-21 -31 -71 -51l-71 -29h205v-81h-284q-2 -12 -2 -42
q0 -57 19 -79q17 -20 54 -20q35 0 52 19q20 23 20 80h112q0 -107 -46 -153q-47 -47 -138 -47q-90 0 -139 47q-46 45 -46 157q0 26 1 38z" />
    <glyph glyph-name="afii61352" unicode="&#x2116;" horiz-adv-x="753" 
d="M705 540q0 -102 -26 -139q-26 -38 -87 -38t-87 38q-26 37 -26 139t26 139q26 38 87 38t87 -38q26 -37 26 -139zM624 540q0 80 -10 99q-7 13 -22 13t-22 -13q-10 -19 -10 -99t10 -99q7 -13 22 -13t22 13q10 19 10 99zM701 266h-211v66h211v-66zM430 0h-97l-162 423v-423
h-111v712h99l160 -423v423h111v-712z" />
    <glyph glyph-name="trademark" unicode="&#x2122;" horiz-adv-x="631" 
d="M581 275h-70v263l-56 -171h-40l-55 168v-260h-70v437h63l82 -225l83 225h63v-437zM240 647h-73v-372h-70v372h-72v65h215v-65z" />
    <glyph glyph-name="Omega" unicode="&#x2126;" horiz-adv-x="491" 
d="M440 0h-167v84q29 17 38 51q12 50 12 221q0 113 -5.5 164t-19.5 72q-18 27 -53 27t-53 -27q-14 -21 -19 -71.5t-5 -164.5q0 -175 11 -221q8 -34 39 -51v-84h-167v94h56q-18 12 -28 37q-23 60 -23 225q0 137 9 200.5t43 103.5q53 60 137 60q85 0 138 -60q34 -40 43 -103.5
t9 -200.5q0 -172 -23 -225q-9 -24 -29 -37h57v-94z" />
    <glyph glyph-name="uni2150" unicode="&#x2150;" horiz-adv-x="832" 
d="M223 285h-77v349l-74 -47v76l75 49h76v-427zM580 712l-246 -712h-82l246 712h82zM793 365l-107 -365h-77l108 367h-100v-60h-70v120h246v-62z" />
    <glyph glyph-name="uni2151" unicode="&#x2151;" horiz-adv-x="832" 
d="M223 285h-77v349l-74 -47v76l75 49h76v-427zM580 712l-246 -712h-82l246 712h82zM785 296q0 -49 -18 -94l-79 -202h-87l71 168q-10 -5 -26 -5q-43 0 -66 29q-26 32 -26 104q0 64 23 97q28 39 94 39q63 0 91 -39q23 -33 23 -97zM709 293q0 54 -11 67q-9 12 -29 12
q-19 0 -28 -12q-10 -15 -10 -67t10 -67q9 -12 28 -12q20 0 29 12q11 13 11 67z" />
    <glyph glyph-name="uni2152" unicode="&#x2152;" horiz-adv-x="1155" 
d="M223 285h-77v349l-74 -47v76l75 49h76v-427zM580 712l-246 -712h-82l246 712h82zM733 0h-77v349l-74 -47v76l75 49h76v-427zM1112 101q0 -49 -32 -79q-30 -27 -87 -27q-56 0 -86 27q-32 30 -32 79v225q0 50 32 79q30 27 86 27q57 0 87 -27q32 -29 32 -79v-225zM1035 97
v233q0 42 -42 42t-42 -42v-233q0 -42 43 -42q41 0 41 42z" />
    <glyph glyph-name="onethird" unicode="&#x2153;" horiz-adv-x="831" 
d="M223 285h-77v349l-74 -47v76l75 49h76v-427zM580 712l-246 -712h-82l246 712h82zM792 120q0 -39 -6 -60t-28 -38q-30 -27 -85 -27q-52 0 -86 28q-31 25 -31 80v18h77v-20q0 -25 10 -35q13 -11 30 -11q19 0 30 11q12 15 12 59q0 43 -11 57q-10 13 -32 13h-25v57h25
q18 0 27 9q13 12 13 56q0 35 -11 45q-10 10 -28 10t-28 -10t-10 -31v-24h-77v20q0 52 32 78q32 27 83 27q53 0 82 -26q34 -30 34 -88q0 -43 -15 -67q-12 -19 -31 -27q22 -12 34 -30q15 -26 15 -74z" />
    <glyph glyph-name="twothirds" unicode="&#x2154;" horiz-adv-x="830" 
d="M279 285h-231v56l133 203q21 34 21 72q0 19 -11.5 30t-29.5 11q-41 0 -41 -43v-30h-77v28q0 51 33 78q31 27 85 27q50 0 82 -24q36 -29 36 -79q0 -46 -30 -92l-118 -177h148v-60zM579 712l-246 -712h-82l246 712h82zM791 120q0 -39 -6 -60t-28 -38q-30 -27 -85 -27
q-52 0 -86 28q-31 25 -31 80v18h77v-20q0 -25 10 -35q13 -11 30 -11q19 0 30 11q12 15 12 59q0 43 -11 57q-10 13 -32 13h-25v57h25q18 0 27 9q13 12 13 56q0 35 -11 45q-10 10 -28 10t-28 -10t-10 -31v-24h-77v20q0 52 32 78q32 27 83 27q53 0 82 -26q34 -30 34 -88
q0 -43 -15 -67q-12 -19 -31 -27q22 -12 34 -30q15 -26 15 -74z" />
    <glyph glyph-name="uni2155" unicode="&#x2155;" horiz-adv-x="832" 
d="M223 285h-77v349l-74 -47v76l75 49h76v-427zM580 712l-246 -712h-82l246 712h82zM794 141q0 -46 -6.5 -72.5t-29.5 -45.5q-32 -28 -85 -28t-85 27q-31 27 -31 76v18h83v-19q0 -42 33 -42q21 0 31 10q13 14 13 76t-13 75q-10 10 -30 10q-15 0 -24.5 -9.5t-9.5 -25.5v-7
h-80v243h228v-60h-151v-107q12 13 27 21q11 7 37 7q44 0 70 -26q23 -26 23 -121z" />
    <glyph glyph-name="uni2156" unicode="&#x2156;" horiz-adv-x="831" 
d="M279 285h-231v56l133 203q21 34 21 72q0 19 -11.5 30t-29.5 11q-41 0 -41 -43v-30h-77v28q0 51 33 78q31 27 85 27q50 0 82 -24q36 -29 36 -79q0 -46 -30 -92l-118 -177h148v-60zM579 712l-246 -712h-82l246 712h82zM793 141q0 -46 -6.5 -72.5t-29.5 -45.5
q-32 -28 -85 -28q-54 0 -85 27t-31 76v18h83v-19q0 -42 33 -42q21 0 31 10q13 14 13 76t-13 75q-10 10 -30 10q-15 0 -24.5 -9.5t-9.5 -25.5v-7h-80v243h228v-60h-151v-107q12 13 27 21q11 7 37 7q44 0 70 -26q23 -26 23 -121z" />
    <glyph glyph-name="uni2157" unicode="&#x2157;" horiz-adv-x="831" 
d="M282 405q0 -39 -6 -60t-28 -38q-30 -27 -85 -27q-52 0 -86 28q-31 25 -31 80v18h77v-20q0 -25 10 -35q13 -11 30 -11q19 0 30 11q12 15 12 59q0 43 -11 57q-10 13 -32 13h-25v57h25q18 0 27 9q13 12 13 56q0 35 -11 45q-10 10 -28 10t-28 -10t-10 -31v-24h-77v20
q0 52 32 78q31 27 83 27q53 0 82 -26q34 -30 34 -88q0 -43 -15 -67q-12 -19 -31 -27q22 -12 34 -30q15 -26 15 -74zM579 712l-246 -712h-82l246 712h82zM793 141q0 -46 -6.5 -72.5t-29.5 -45.5q-32 -28 -85 -28q-54 0 -85 27t-31 76v18h83v-19q0 -42 33 -42q21 0 31 10
q13 14 13 76t-13 75q-10 10 -30 10q-15 0 -24.5 -9.5t-9.5 -25.5v-7h-80v243h228v-60h-151v-107q12 13 27 21q11 7 37 7q44 0 70 -26q23 -26 23 -121z" />
    <glyph glyph-name="uni2158" unicode="&#x2158;" horiz-adv-x="832" 
d="M285 348h-33v-63h-77v63h-146v60l109 304h73l-106 -304h70v70h77v-70h33v-60zM580 712l-246 -712h-82l246 712h82zM794 141q0 -46 -6.5 -72.5t-29.5 -45.5q-32 -28 -85 -28t-85 27q-31 27 -31 76v18h83v-19q0 -42 33 -42q21 0 31 10q13 14 13 76t-13 75q-10 10 -30 10
q-15 0 -24.5 -9.5t-9.5 -25.5v-7h-80v243h228v-60h-151v-107q12 13 27 21q11 7 37 7q44 0 70 -26q23 -26 23 -121z" />
    <glyph glyph-name="uni2159" unicode="&#x2159;" horiz-adv-x="832" 
d="M223 285h-77v349l-74 -47v76l75 49h76v-427zM580 712l-246 -712h-82l246 712h82zM784 131q0 -64 -23 -97q-28 -39 -94 -39q-65 0 -91 39q-24 35 -24 97q0 49 18 94l80 202h86l-71 -168q10 5 26 5q42 0 67 -29q26 -32 26 -104zM707 134q0 54 -11 67q-9 12 -28 12t-28 -12
q-11 -13 -11 -67t11 -67q9 -12 28 -12t28 12q11 13 11 67z" />
    <glyph glyph-name="uni215A" unicode="&#x215a;" horiz-adv-x="832" 
d="M284 426q0 -46 -6.5 -72.5t-29.5 -45.5q-32 -28 -85 -28t-85 27q-31 27 -31 76v18h83v-19q0 -42 33 -42q21 0 31 10q13 14 13 76t-13 75q-10 10 -30 10q-15 0 -24.5 -9.5t-9.5 -25.5v-7h-80v243h228v-60h-151v-107q12 13 27 21q11 7 37 7q44 0 70 -26q23 -26 23 -121z
M580 712l-246 -712h-82l246 712h82zM784 131q0 -64 -23 -97q-28 -39 -94 -39q-65 0 -91 39q-24 35 -24 97q0 49 18 94l80 202h86l-71 -168q10 5 26 5q42 0 67 -29q26 -32 26 -104zM707 134q0 54 -11 67q-9 12 -28 12t-28 -12q-11 -13 -11 -67t11 -67q9 -12 28 -12t28 12
q11 13 11 67z" />
    <glyph glyph-name="oneeighth" unicode="&#x215b;" horiz-adv-x="832" 
d="M223 285h-77v349l-74 -47v76l75 49h76v-427zM580 712l-246 -712h-82l246 712h82zM786 122q0 -36 -6 -57.5t-28 -41.5q-29 -28 -82 -28t-82 28q-22 20 -28 41.5t-6 57.5q0 43 13 69q8 13 29 31q-17 10 -26 27q-12 24 -12 64q0 64 33 93q30 26 79 26q50 0 80 -26
q33 -29 33 -93q0 -40 -13 -64q-10 -18 -25 -27q22 -17 29 -31q12 -22 12 -69zM709 123q0 48 -10 58t-29 10t-29 -10t-10 -58t10 -58t29 -10t29 10t10 58zM706 311q0 43 -9 52t-27 9q-17 0 -26 -9t-9 -52t9 -52t26 -9q18 0 27 9t9 52z" />
    <glyph glyph-name="threeeighths" unicode="&#x215c;" horiz-adv-x="831" 
d="M282 405q0 -39 -6 -60t-28 -38q-30 -27 -85 -27q-52 0 -86 28q-31 25 -31 80v18h77v-20q0 -25 10 -35q13 -11 30 -11q19 0 30 11q12 15 12 59q0 43 -11 57q-10 13 -32 13h-25v57h25q18 0 27 9q13 12 13 56q0 35 -11 45q-10 10 -28 10t-28 -10t-10 -31v-24h-77v20
q0 52 32 78q31 27 83 27q53 0 82 -26q34 -30 34 -88q0 -43 -15 -67q-12 -19 -31 -27q22 -12 34 -30q15 -26 15 -74zM579 712l-246 -712h-82l246 712h82zM785 122q0 -36 -6 -57.5t-28 -41.5q-29 -28 -82 -28t-82 28q-22 20 -28 41.5t-6 57.5q0 43 13 69q8 13 29 31
q-17 10 -26 27q-12 24 -12 64q0 64 33 93q30 26 79 26q50 0 80 -26q33 -29 33 -93q0 -40 -13 -64q-10 -18 -25 -27q22 -17 29 -31q12 -22 12 -69zM708 123q0 48 -10 58t-29 10t-29 -10t-10 -58t10 -58t29 -10t29 10t10 58zM705 311q0 43 -9 52t-27 9q-17 0 -26 -9t-9 -52
t9 -52t26 -9q18 0 27 9t9 52z" />
    <glyph glyph-name="fiveeighths" unicode="&#x215d;" horiz-adv-x="832" 
d="M284 426q0 -46 -6.5 -72.5t-29.5 -45.5q-32 -28 -85 -28t-85 27q-31 27 -31 76v18h83v-19q0 -42 33 -42q21 0 31 10q13 14 13 76t-13 75q-10 10 -30 10q-15 0 -24.5 -9.5t-9.5 -25.5v-7h-80v243h228v-60h-151v-107q12 13 27 21q11 7 37 7q44 0 70 -26q23 -26 23 -121z
M580 712l-246 -712h-82l246 712h82zM786 122q0 -36 -6 -57.5t-28 -41.5q-29 -28 -82 -28t-82 28q-22 20 -28 41.5t-6 57.5q0 43 13 69q8 13 29 31q-17 10 -26 27q-12 24 -12 64q0 64 33 93q30 26 79 26q50 0 80 -26q33 -29 33 -93q0 -40 -13 -64q-10 -18 -25 -27
q22 -17 29 -31q12 -22 12 -69zM709 123q0 48 -10 58t-29 10t-29 -10t-10 -58t10 -58t29 -10t29 10t10 58zM706 311q0 43 -9 52t-27 9q-17 0 -26 -9t-9 -52t9 -52t26 -9q18 0 27 9t9 52z" />
    <glyph glyph-name="seveneighths" unicode="&#x215e;" horiz-adv-x="832" 
d="M283 650l-107 -365h-77l108 367h-100v-60h-70v120h246v-62zM580 712l-246 -712h-82l246 712h82zM786 122q0 -36 -6 -57.5t-28 -41.5q-29 -28 -82 -28t-82 28q-22 20 -28 41.5t-6 57.5q0 43 13 69q8 13 29 31q-17 10 -26 27q-12 24 -12 64q0 64 33 93q30 26 79 26
q50 0 80 -26q33 -29 33 -93q0 -40 -13 -64q-10 -18 -25 -27q22 -17 29 -31q12 -22 12 -69zM709 123q0 48 -10 58t-29 10t-29 -10t-10 -58t10 -58t29 -10t29 10t10 58zM706 311q0 43 -9 52t-27 9q-17 0 -26 -9t-9 -52t9 -52t26 -9q18 0 27 9t9 52z" />
    <glyph glyph-name="uni215F" unicode="&#x215f;" horiz-adv-x="510" 
d="M223 285h-77v349l-74 -47v76l75 49h76v-427zM580 712l-246 -712h-82l246 712h82z" />
    <glyph glyph-name="uni2189" unicode="&#x2189;" horiz-adv-x="832" 
d="M280 386q0 -49 -32 -79q-30 -27 -87 -27q-56 0 -86 27q-32 30 -32 79v225q0 50 32 79q30 27 86 27q57 0 87 -27q32 -29 32 -79v-225zM203 382v233q0 42 -42 42t-42 -42v-233q0 -42 43 -42q41 0 41 42zM581 712l-246 -712h-82l246 712h82zM793 120q0 -39 -6 -60t-28 -38
q-30 -27 -85 -27q-52 0 -86 28q-31 25 -31 80v18h77v-20q0 -25 10 -35q13 -11 30 -11q19 0 30 11q12 15 12 59q0 43 -11 57q-10 13 -32 13h-25v57h25q18 0 27 9q13 12 13 56q0 35 -11 45q-10 10 -28 10t-28 -10t-10 -31v-24h-77v20q0 52 32 78q31 27 83 27q53 0 82 -26
q34 -30 34 -88q0 -43 -15 -67q-12 -19 -31 -27q22 -12 34 -30q15 -26 15 -74z" />
    <glyph glyph-name="arrowleft" unicode="&#x2190;" horiz-adv-x="719" 
d="M672 235h-463l210 -208h-136l-259 258l259 258h136l-210 -207h463v-101z" />
    <glyph glyph-name="arrowup" unicode="&#x2191;" horiz-adv-x="719" 
d="M618 225l-208 209v-463h-101v463l-208 -209v136l258 258l259 -258v-136z" />
    <glyph glyph-name="arrowright" unicode="&#x2192;" horiz-adv-x="719" 
d="M695 285l-259 -258h-136l210 208h-463v101h463l-210 207h136z" />
    <glyph glyph-name="arrowdown" unicode="&#x2193;" horiz-adv-x="719" 
d="M618 210l-259 -259l-258 259v136l208 -210v463h101v-463l208 210v-136z" />
    <glyph glyph-name="uni2196" unicode="&#x2196;" horiz-adv-x="719" 
d="M592 429h-295l327 -327l-71 -71l-328 327l1 -295l-96 96v366h365z" />
    <glyph glyph-name="uni2197" unicode="&#x2197;" horiz-adv-x="719" 
d="M493 62v295l-327 -327l-71 71l327 328l-295 -1l96 96h366v-365z" />
    <glyph glyph-name="uni2198" unicode="&#x2198;" horiz-adv-x="719" 
d="M588 412v-365h-365l-97 96l296 -2l-327 328l71 71l327 -327l-1 295z" />
    <glyph glyph-name="uni2199" unicode="&#x2199;" horiz-adv-x="719" 
d="M496 46h-365v365l96 97l-2 -296l328 327l71 -71l-327 -327l295 1z" />
    <glyph glyph-name="partialdiff" unicode="&#x2202;" horiz-adv-x="412" 
d="M360 264q0 -164 -38 -217q-39 -55 -123 -55q-83 0 -124 52q-38 50 -38 201q0 92 7 140t31 75q33 39 93 39q28 0 53 -14q23 -13 32 -27v63q0 62 -14 82q-17 22 -45 22q-35 0 -60 -28l-69 67q52 55 134 55q76 0 114 -39q25 -25 36 -58.5t11 -110.5v-247zM254 245
q0 113 -16 139q-12 20 -39 20q-28 0 -40 -20q-16 -26 -16 -139q0 -116 16 -139q12 -19 40 -19q27 0 39 19q16 23 16 139z" />
    <glyph glyph-name="Delta" unicode="&#x2206;" horiz-adv-x="468" 
d="M462 0h-457l175 712h109zM324 101l-90 439l-90 -439h180z" />
    <glyph glyph-name="product" unicode="&#x220f;" horiz-adv-x="483" 
d="M423 -190h-112v849h-139v-849h-112v950h363v-950z" />
    <glyph glyph-name="summation" unicode="&#x2211;" horiz-adv-x="392" 
d="M353 -192h-322v84l141 404l-136 380v84h317v-101h-199l106 -315v-102l-111 -333h204v-101z" />
    <glyph glyph-name="minus" unicode="&#x2212;" horiz-adv-x="457" 
d="M413 238h-369v101h369v-101z" />
    <glyph glyph-name="uni2219" unicode="&#x2219;" horiz-adv-x="457" 
d="M391 290q0 -68 -47.5 -115.5t-115.5 -47.5t-115.5 47.5t-47.5 115.5t47.5 115.5t115.5 47.5t115.5 -47.5t47.5 -115.5z" />
    <glyph glyph-name="radical" unicode="&#x221a;" horiz-adv-x="492" 
d="M469 611h-83l-143 -611h-117l-122 522h122l58 -357l101 547h184v-101z" />
    <glyph glyph-name="infinity" unicode="&#x221e;" horiz-adv-x="655" 
d="M612 288q0 -63 -38.5 -104t-108.5 -41q-73 0 -137 72q-64 -72 -138 -72q-70 0 -108.5 41t-38.5 104t38.5 104t108.5 41q73 0 138 -73q65 73 137 73q70 0 108.5 -41t38.5 -104zM514 285q0 23 -14 36.5t-35 13.5q-13 0 -25.5 -7.5t-21 -16.5t-22.5 -26q40 -49 69 -49
q21 0 35 13t14 36zM259 285q-14 17 -22.5 26t-21 16.5t-25.5 7.5q-21 0 -35 -13.5t-14 -36.5t14 -36t35 -13q29 0 69 49z" />
    <glyph glyph-name="integral" unicode="&#x222b;" horiz-adv-x="310" 
d="M280 624h-31q-18 0 -29.5 -12.5t-11.5 -32.5v-619q0 -69 -37 -104q-36 -36 -95 -36h-46v95h31q18 0 29.5 13t11.5 33v618q0 69 37 104q36 36 95 36h46v-95z" />
    <glyph glyph-name="approxequal" unicode="&#x2248;" horiz-adv-x="457" 
d="M434 371q-66 -66 -126 -66q-39 0 -88 26q-36 19 -66 19q-33 0 -66 -33l-65 64q66 66 126 66q42 0 89 -25q38 -20 65 -20q33 0 66 33zM434 189q-66 -66 -126 -66q-39 0 -88 26q-36 19 -66 19q-32 0 -65 -33l-66 64q66 66 126 66q42 0 89 -25q38 -20 65 -20q33 0 66 33z
" />
    <glyph glyph-name="notequal" unicode="&#x2260;" horiz-adv-x="457" 
d="M424 148h-235l-76 -110l-78 51l42 59h-43v101h110l57 79h-167v102h235l76 110l77 -52l-41 -58h43v-102h-111l-57 -79h168v-101z" />
    <glyph glyph-name="lessequal" unicode="&#x2264;" horiz-adv-x="401" 
d="M367 191l-333 194v74l333 194v-116l-203 -115l203 -115v-116zM367 -11l-333 195v111l333 -194v-112z" />
    <glyph glyph-name="greaterequal" unicode="&#x2265;" horiz-adv-x="401" 
d="M367 385l-333 -194v116l203 115l-203 115v116l333 -194v-74zM367 184l-333 -195v112l333 194v-111z" />
    <glyph glyph-name="dotmath" unicode="&#x22c5;" horiz-adv-x="457" 
d="M308 209h-160v160h160v-160z" />
    <glyph glyph-name="lozenge" unicode="&#x25ca;" horiz-adv-x="494" 
d="M449 334l-202 -281l-202 281l202 281zM336 334l-89 125l-89 -125l89 -125z" />
    <glyph glyph-name="fi" unicode="&#xfb01;" horiz-adv-x="463" 
d="M252 432h-73v-432h-106v432h-54v81h54v45q0 85 53 127q43 33 126 33v-95q-73 0 -73 -71v-39h73v-81zM411 0h-106v513h106v-513zM416 594h-117v117h117v-117z" />
    <glyph glyph-name="fl" unicode="&#xfb02;" horiz-adv-x="500" 
d="M252 432h-73v-432h-106v432h-54v81h54v45q0 85 53 127q43 33 126 33v-95q-73 0 -73 -71v-39h73v-81zM483 0q-84 0 -125 32q-53 40 -53 128v552h106v-546q0 -71 72 -71v-95z" />
    <glyph glyph-name="uniFEFF" unicode="&#xfeff;" horiz-adv-x="0" 
 />
    <glyph glyph-name="i.latn_TRK" horiz-adv-x="210" 
d="M158 0h-106v513h106v-513zM163 594h-117v117h117v-117z" />
    <glyph glyph-name="Ldot.latn_CAT" horiz-adv-x="383" 
d="M359 0h-299v712h112v-611h187v-101zM356 308h-100v100h100v-100z" />
    <glyph glyph-name="ldot.latn_CAT" horiz-adv-x="304" 
d="M227 0q-84 0 -125 32q-53 40 -53 128v552h106v-546q0 -71 72 -71v-95zM305 250h-100v100h100v-100z" />
    <glyph glyph-name="zero.numr" horiz-adv-x="323" 
d="M280 386q0 -49 -32 -79q-30 -27 -87 -27q-56 0 -86 27q-32 30 -32 79v225q0 50 32 79q30 27 86 27q57 0 87 -27q32 -29 32 -79v-225zM203 382v233q0 42 -42 42t-42 -42v-233q0 -42 43 -42q41 0 41 42z" />
    <glyph glyph-name="one.numr" horiz-adv-x="322" 
d="M223 285h-77v349l-74 -47v76l75 49h76v-427z" />
    <glyph glyph-name="two.numr" horiz-adv-x="321" 
d="M279 285h-231v56l133 203q21 34 21 72q0 19 -11.5 30t-29.5 11q-41 0 -41 -43v-30h-77v28q0 51 33 78q31 27 85 27q50 0 82 -24q36 -29 36 -79q0 -46 -30 -92l-118 -177h148v-60z" />
    <glyph glyph-name="three.numr" horiz-adv-x="321" 
d="M282 405q0 -39 -6 -60t-28 -38q-30 -27 -85 -27q-52 0 -86 28q-31 25 -31 80v18h77v-20q0 -25 10 -35q13 -11 30 -11q19 0 30 11q12 15 12 59q0 43 -11 57q-10 13 -32 13h-25v57h25q18 0 27 9q13 12 13 56q0 35 -11 45q-10 10 -28 10t-28 -10t-10 -31v-24h-77v20
q0 52 32 78q31 27 83 27q53 0 82 -26q34 -30 34 -88q0 -43 -15 -67q-12 -19 -31 -27q22 -12 34 -30q15 -26 15 -74z" />
    <glyph glyph-name="four.numr" horiz-adv-x="322" 
d="M285 348h-33v-63h-77v63h-146v60l109 304h73l-106 -304h70v70h77v-70h33v-60z" />
    <glyph glyph-name="five.numr" horiz-adv-x="322" 
d="M284 426q0 -46 -6.5 -72.5t-29.5 -45.5q-32 -28 -85 -28t-85 27q-31 27 -31 76v18h83v-19q0 -42 33 -42q21 0 31 10q13 14 13 76t-13 75q-10 10 -30 10q-15 0 -24.5 -9.5t-9.5 -25.5v-7h-80v243h228v-60h-151v-107q12 13 27 21q11 7 37 7q44 0 70 -26q23 -26 23 -121z
" />
    <glyph glyph-name="six.numr" horiz-adv-x="322" 
d="M274 416q0 -64 -23 -97q-28 -39 -94 -39q-65 0 -91 39q-24 35 -24 97q0 49 18 94l80 202h86l-71 -168q10 5 26 5q42 0 67 -29q26 -32 26 -104zM197 419q0 54 -11 67q-9 12 -28 12t-28 -12q-11 -13 -11 -67t11 -67q9 -12 28 -12t28 12q11 13 11 67z" />
    <glyph glyph-name="seven.numr" horiz-adv-x="322" 
d="M283 650l-107 -365h-77l108 367h-100v-60h-70v120h246v-62z" />
    <glyph glyph-name="eight.numr" horiz-adv-x="322" 
d="M276 407q0 -36 -6 -57.5t-28 -41.5q-29 -28 -82 -28t-82 28q-22 20 -28 41.5t-6 57.5q0 43 13 69q8 13 29 31q-17 10 -26 27q-12 24 -12 64q0 64 33 93q30 26 79 26q50 0 80 -26q33 -29 33 -93q0 -40 -13 -64q-10 -18 -25 -27q22 -17 29 -31q12 -22 12 -69zM199 408
q0 48 -10 58t-29 10t-29 -10t-10 -58t10 -58t29 -10t29 10t10 58zM196 596q0 43 -9 52t-27 9q-17 0 -26 -9t-9 -52t9 -52t26 -9q18 0 27 9t9 52z" />
    <glyph glyph-name="nine.numr" horiz-adv-x="322" 
d="M275 581q0 -49 -18 -94l-79 -202h-87l71 168q-10 -5 -26 -5q-43 0 -66 29q-26 32 -26 104q0 64 23 97q28 39 94 39q63 0 91 -39q23 -33 23 -97zM199 578q0 54 -11 67q-9 12 -29 12q-19 0 -28 -12q-10 -15 -10 -67t10 -67q9 -12 28 -12q20 0 29 12q11 13 11 67z" />
    <glyph glyph-name="zero.dnom" horiz-adv-x="323" 
d="M280 101q0 -49 -32 -79q-30 -27 -87 -27q-56 0 -86 27q-32 30 -32 79v225q0 50 32 79q30 27 86 27q57 0 87 -27q32 -29 32 -79v-225zM203 97v233q0 42 -42 42t-42 -42v-233q0 -42 43 -42q41 0 41 42z" />
    <glyph glyph-name="one.dnom" horiz-adv-x="322" 
d="M223 0h-77v349l-74 -47v76l75 49h76v-427z" />
    <glyph glyph-name="two.dnom" horiz-adv-x="321" 
d="M279 0h-231v56l133 203q21 34 21 72q0 19 -11.5 30t-29.5 11q-41 0 -41 -43v-30h-77v28q0 51 33 78q31 27 85 27q50 0 82 -24q36 -29 36 -79q0 -46 -30 -92l-118 -177h148v-60z" />
    <glyph glyph-name="three.dnom" horiz-adv-x="321" 
d="M282 120q0 -39 -6 -60t-28 -38q-30 -27 -85 -27q-52 0 -86 28q-31 25 -31 80v18h77v-20q0 -25 10 -35q13 -11 30 -11q19 0 30 11q12 15 12 59q0 43 -11 57q-10 13 -32 13h-25v57h25q18 0 27 9q13 12 13 56q0 35 -11 45q-10 10 -28 10t-28 -10t-10 -31v-24h-77v20
q0 52 32 78q31 27 83 27q53 0 82 -26q34 -30 34 -88q0 -43 -15 -67q-12 -19 -31 -27q22 -12 34 -30q15 -26 15 -74z" />
    <glyph glyph-name="four.dnom" horiz-adv-x="322" 
d="M285 63h-33v-63h-77v63h-146v60l109 304h73l-106 -304h70v70h77v-70h33v-60z" />
    <glyph glyph-name="five.dnom" horiz-adv-x="322" 
d="M284 141q0 -46 -6.5 -72.5t-29.5 -45.5q-32 -28 -85 -28t-85 27q-31 27 -31 76v18h83v-19q0 -42 33 -42q21 0 31 10q13 14 13 76t-13 75q-10 10 -30 10q-15 0 -24.5 -9.5t-9.5 -25.5v-7h-80v243h228v-60h-151v-107q12 13 27 21q11 7 37 7q44 0 70 -26q23 -26 23 -121z
" />
    <glyph glyph-name="six.dnom" horiz-adv-x="322" 
d="M274 131q0 -64 -23 -97q-28 -39 -94 -39q-65 0 -91 39q-24 35 -24 97q0 49 18 94l80 202h86l-71 -168q10 5 26 5q42 0 67 -29q26 -32 26 -104zM197 134q0 54 -11 67q-9 12 -28 12t-28 -12q-11 -13 -11 -67t11 -67q9 -12 28 -12t28 12q11 13 11 67z" />
    <glyph glyph-name="seven.dnom" horiz-adv-x="322" 
d="M283 365l-107 -365h-77l108 367h-100v-60h-70v120h246v-62z" />
    <glyph glyph-name="eight.dnom" horiz-adv-x="322" 
d="M276 122q0 -36 -6 -57.5t-28 -41.5q-29 -28 -82 -28t-82 28q-22 20 -28 41.5t-6 57.5q0 43 13 69q8 13 29 31q-17 10 -26 27q-12 24 -12 64q0 64 33 93q30 26 79 26q50 0 80 -26q33 -29 33 -93q0 -40 -13 -64q-10 -18 -25 -27q22 -17 29 -31q12 -22 12 -69zM199 123
q0 48 -10 58t-29 10t-29 -10t-10 -58t10 -58t29 -10t29 10t10 58zM196 311q0 43 -9 52t-27 9q-17 0 -26 -9t-9 -52t9 -52t26 -9q18 0 27 9t9 52z" />
    <glyph glyph-name="nine.dnom" horiz-adv-x="322" 
d="M275 296q0 -49 -18 -94l-79 -202h-87l71 168q-10 -5 -26 -5q-43 0 -66 29q-26 32 -26 104q0 64 23 97q28 39 94 39q63 0 91 -39q23 -33 23 -97zM199 293q0 54 -11 67q-9 12 -29 12q-19 0 -28 -12q-10 -15 -10 -67t10 -67q9 -12 28 -12q20 0 29 12q11 13 11 67z" />
    <glyph glyph-name="space.frac" horiz-adv-x="35" 
 />
    <glyph glyph-name="zero.osf" horiz-adv-x="401" 
d="M249 148v298q0 30 -14.5 45.5t-37.5 15.5t-37.5 -15.5t-14.5 -45.5v-298q0 -30 14.5 -45.5t37.5 -15.5t37.5 15.5t14.5 45.5zM197 -8q-72 0 -114 42q-44 44 -44 118v290q0 76 44 118q42 42 114 42t114 -42q44 -43 44 -118v-290q0 -74 -44 -118q-42 -42 -114 -42z" />
    <glyph glyph-name="one.osf" horiz-adv-x="331" 
d="M254 0h-106v474l-107 -86v120l107 86h106v-594z" />
    <glyph glyph-name="two.osf" horiz-adv-x="388" 
d="M354 0h-323v90l174 235q24 32 31 56.5t7 63.5q0 30 -14.5 46t-37.5 16t-38 -16t-15 -45v-41h-106v37q0 76 44 118q43 42 115 42q70 0 111 -38q47 -45 47 -123q0 -82 -46 -144l-149 -202h200v-95z" />
    <glyph glyph-name="three.osf" horiz-adv-x="389" 
d="M350 85q0 -68 -8 -104t-39 -65q-44 -42 -114 -42t-114 42q-45 42 -45 118v42h106v-45q0 -30 15 -46t38 -16q24 0 38 19q17 20 17 104q0 82 -16 103q-14 19 -39 19h-36v89h36q20 0 34 14q16 19 16 90q0 66 -15 84q-13 16 -35 16q-21 0 -34.5 -15t-13.5 -42v-50h-106v43
q0 76 44 118q41 41 110 41q70 0 110 -40q46 -45 46 -148q0 -78 -18 -113q-15 -28 -39 -42q29 -22 41 -43q21 -39 21 -131z" />
    <glyph glyph-name="four.osf" horiz-adv-x="414" 
d="M385 30h-52v-153h-106v153h-198v95l183 504h103l-177 -504h89v127h106v-127h52v-95z" />
    <glyph glyph-name="five.osf" horiz-adv-x="397" 
d="M360 122q0 -58 -2 -87t-13 -62t-33 -55q-44 -44 -113 -44q-71 0 -114 41q-45 43 -45 119v35h106v-49q0 -31 14.5 -46.5t38.5 -15.5q25 0 39 19q16 21 16 135q0 104 -14 126q-13 22 -41 22q-23 0 -38 -16.5t-15 -44.5v-15h-101v410h307v-95h-210v-191q18 23 37 34
q24 13 51 13q62 0 96 -43q21 -26 27.5 -70.5t6.5 -119.5z" />
    <glyph glyph-name="six.osf" horiz-adv-x="389" 
d="M355 216q0 -118 -34 -167q-40 -57 -127 -57q-85 0 -125 57q-20 30 -27.5 66t-7.5 101q0 94 29 168l125 328h110l-117 -288q16 12 44 12q60 0 94 -44q20 -26 28 -62.5t8 -113.5zM249 218q0 93 -16 113q-14 18 -38 18q-25 0 -39 -18q-16 -20 -16 -113t16 -113
q14 -18 39 -18q24 0 38 18q16 20 16 113z" />
    <glyph glyph-name="seven.osf" horiz-adv-x="395" 
d="M366 506l-189 -624h-104l186 617h-123v-95h-103v190h333v-88z" />
    <glyph glyph-name="eight.osf" horiz-adv-x="398" 
d="M360 201q0 -65 -9 -101.5t-38 -65.5q-42 -42 -113 -42q-70 0 -114 42q-29 29 -38 65.5t-9 101.5q0 88 21 126q14 24 42 45q-26 20 -39 44q-19 39 -19 111q0 106 46 152q41 41 109 41q70 0 110 -41q46 -46 46 -152q0 -72 -19 -111q-13 -24 -39 -44q28 -21 42 -45
q21 -38 21 -126zM254 207q0 83 -16 104q-14 17 -38 17q-25 0 -39 -17q-16 -21 -16 -104q0 -82 16 -103q14 -17 39 -17q24 0 38 17q16 21 16 103zM249 521q0 74 -17 92q-12 12 -32 12q-21 0 -33 -12q-17 -18 -17 -92q0 -73 18 -92q12 -12 32 -12t32 12q17 18 17 92z" />
    <glyph glyph-name="nine.osf" horiz-adv-x="389" 
d="M356 378q0 -94 -29 -168l-125 -328h-110l117 288q-16 -12 -43 -12q-60 0 -95 44q-20 26 -28 62.5t-8 113.5q0 68 8 103.5t27 63.5q40 57 126 57q85 0 125 -57q20 -30 27.5 -66t7.5 -101zM250 376q0 93 -16 113q-14 18 -38 18q-26 0 -39 -18q-16 -20 -16 -113t16 -113
q13 -18 39 -18q24 0 38 18q16 20 16 113z" />
    <glyph glyph-name="zero.lf" horiz-adv-x="401" 
d="M359 152q0 -76 -44 -118q-43 -42 -114 -42t-114 42q-45 44 -45 118v408q0 74 45 118q43 42 114 42t114 -42q44 -42 44 -118v-408zM253 148v416q0 30 -14.5 45.5t-37.5 15.5t-37.5 -15.5t-14.5 -45.5v-416q0 -30 14.5 -45.5t37.5 -15.5t37.5 15.5t14.5 45.5z" />
    <glyph glyph-name="one.lf" horiz-adv-x="313" 
d="M242 0h-106v587l-106 -81v120l106 86h106v-712z" />
    <glyph glyph-name="two.lf" horiz-adv-x="375" 
d="M346 0h-314v90l178 346q30 58 30 127q0 30 -14.5 46t-37.5 16t-38 -16t-15 -45v-46h-106v42q0 74 45 118q43 42 114 42q69 0 111 -38q47 -45 47 -123q0 -79 -40 -156l-160 -308h200v-95z" />
    <glyph glyph-name="three.lf" horiz-adv-x="385" 
d="M351 203q0 -67 -8 -103.5t-39 -65.5q-44 -42 -114 -42q-73 0 -115 42q-44 42 -44 118v42h106v-45q0 -30 14.5 -46t38.5 -16t38 19q17 20 17 104q0 82 -16 103q-14 19 -40 19h-35v89h35q22 0 34 14q16 18 16 90q0 66 -14 84q-13 16 -35 16q-21 0 -34.5 -15t-13.5 -42v-50
h-106v43q0 75 44 118q42 41 110 41q69 0 109 -40q46 -43 46 -148q0 -78 -17 -113q-14 -27 -40 -42q30 -21 41 -43q22 -38 22 -131z" />
    <glyph glyph-name="four.lf" horiz-adv-x="405" 
d="M377 111h-49v-111h-106v111h-198v95l183 506h103l-177 -506h89v127h106v-127h49v-95z" />
    <glyph glyph-name="five.lf" horiz-adv-x="394" 
d="M360 231q0 -80 -8 -121t-40 -74q-42 -44 -113 -44t-114 41q-45 42 -45 119v35h106v-37q0 -31 14.5 -47t38.5 -16t38 18q17 23 17 126t-14 125q-15 22 -41 22q-23 0 -38 -16t-15 -45v-15h-101v410h307v-95h-210v-191q14 20 37 34q22 13 51 13q62 0 96 -43q19 -23 26.5 -65
t7.5 -134z" />
    <glyph glyph-name="six.lf" horiz-adv-x="387" 
d="M354 216q0 -118 -34 -167q-40 -57 -127 -57q-85 0 -125 57q-20 30 -27.5 66t-7.5 101q0 94 29 168l125 328h110l-117 -288q16 12 44 12q60 0 94 -44q20 -26 28 -62.5t8 -113.5zM248 218q0 93 -16 113q-14 18 -38 18q-26 0 -39 -18q-16 -20 -16 -113t16 -113
q13 -18 39 -18q24 0 38 18q16 20 16 113z" />
    <glyph glyph-name="seven.lf" horiz-adv-x="386" 
d="M363 624l-182 -624h-105l180 617h-123v-95h-103v190h333v-88z" />
    <glyph glyph-name="eight.lf" horiz-adv-x="394" 
d="M358 201q0 -65 -9 -101.5t-38 -65.5q-42 -42 -113 -42q-70 0 -114 42q-29 29 -38 65.5t-9 101.5q0 88 21 126q14 24 42 45q-26 20 -39 44q-19 39 -19 111q0 106 46 152q41 41 109 41q70 0 110 -41q46 -46 46 -152q0 -72 -19 -111q-13 -24 -39 -44q28 -21 42 -45
q21 -38 21 -126zM252 207q0 83 -16 104q-14 17 -38 17q-25 0 -39 -17q-16 -21 -16 -104q0 -82 16 -103q14 -17 39 -17q24 0 38 17q16 21 16 103zM247 521q0 74 -17 92q-12 12 -32 12q-21 0 -33 -12q-17 -18 -17 -92q0 -73 18 -92q12 -12 32 -12t32 12q17 18 17 92z" />
    <glyph glyph-name="nine.lf" horiz-adv-x="387" 
d="M354 496q0 -94 -29 -168l-125 -328h-110l117 288q-16 -12 -43 -12q-60 0 -95 44q-20 26 -28 62.5t-8 113.5q0 68 8 103.5t27 63.5q40 57 126 57q85 0 125 -57q20 -30 27.5 -66t7.5 -101zM248 494q0 93 -16 113q-14 18 -38 18q-26 0 -39 -18q-16 -20 -16 -113t16 -113
q13 -18 39 -18q24 0 38 18q16 20 16 113z" />
    <glyph glyph-name="zero.tosf" horiz-adv-x="401" 
d="M253 148v298q0 30 -14.5 45.5t-37.5 15.5t-37.5 -15.5t-14.5 -45.5v-298q0 -30 14.5 -45.5t37.5 -15.5t37.5 15.5t14.5 45.5zM201 -8q-71 0 -115 42t-44 118v290q0 76 44 118t115 42t114 -42q44 -42 44 -118v-290q0 -76 -44 -118q-43 -42 -114 -42z" />
    <glyph glyph-name="one.tosf" horiz-adv-x="401" 
d="M279 0h-106v474l-107 -86v120l107 86h106v-594z" />
    <glyph glyph-name="two.tosf" horiz-adv-x="401" 
d="M362 0h-323v90l174 235q24 32 31 56.5t7 63.5q0 30 -14.5 46t-37.5 16t-38 -16t-15 -45v-41h-106v37q0 76 44 118t115 42q70 0 111 -38q47 -45 47 -123q0 -82 -46 -144l-149 -202h200v-95z" />
    <glyph glyph-name="three.tosf" horiz-adv-x="401" 
d="M354 85q0 -70 -8 -104.5t-39 -64.5q-42 -42 -113 -42q-72 0 -115 42q-45 44 -45 118v42h106v-45q0 -30 15 -46t39 -16t38 19q16 19 16 104q0 82 -16 103q-14 19 -39 19h-35v89h35q20 0 34 14q16 19 16 90q0 66 -14 84q-13 16 -35 16t-35.5 -14.5t-13.5 -42.5v-50h-106v43
q0 76 44 118q42 41 111 41t109 -40q46 -45 46 -148q0 -78 -18 -113q-15 -28 -39 -42q29 -22 41 -43q21 -39 21 -131z" />
    <glyph glyph-name="four.tosf" horiz-adv-x="401" 
d="M378 30h-52v-153h-106v153h-198v95l183 504h103l-177 -504h89v127h106v-127h52v-95z" />
    <glyph glyph-name="five.tosf" horiz-adv-x="401" 
d="M363 122q0 -58 -2 -87t-13 -62t-33 -55q-44 -44 -113 -44q-71 0 -114 41q-45 43 -45 119v35h106v-49q0 -31 14.5 -46.5t38.5 -15.5q25 0 39 19q16 21 16 135q0 104 -14 126q-13 22 -41 22q-23 0 -38 -16.5t-15 -44.5v-15h-101v410h307v-95h-210v-191q18 23 37 34
q24 13 51 13q62 0 96 -43q21 -26 27.5 -70.5t6.5 -119.5z" />
    <glyph glyph-name="six.tosf" horiz-adv-x="401" 
d="M361 216q0 -118 -34 -167q-40 -57 -127 -57q-85 0 -125 57q-20 30 -27.5 66t-7.5 101q0 94 29 168l125 328h110l-117 -288q16 12 44 12q60 0 94 -44q20 -26 28 -62.5t8 -113.5zM255 218q0 93 -16 113q-14 18 -38 18q-25 0 -39 -18q-16 -20 -16 -113t16 -113
q14 -18 39 -18q24 0 38 18q16 20 16 113z" />
    <glyph glyph-name="seven.tosf" horiz-adv-x="401" 
d="M370 506l-189 -624h-104l186 617h-126v-95h-103v190h336v-88z" />
    <glyph glyph-name="eight.tosf" horiz-adv-x="401" 
d="M361 201q0 -65 -9 -101.5t-38 -65.5q-42 -42 -113 -42q-70 0 -114 42q-29 29 -38 65.5t-9 101.5q0 88 21 126q14 24 42 45q-26 20 -39 44q-19 39 -19 111q0 106 46 152q41 41 109 41q70 0 110 -41q46 -46 46 -152q0 -72 -19 -111q-13 -24 -39 -44q28 -21 42 -45
q21 -38 21 -126zM255 207q0 83 -16 104q-14 17 -38 17q-25 0 -39 -17q-16 -21 -16 -104q0 -82 16 -103q14 -17 39 -17q24 0 38 17q16 21 16 103zM250 521q0 74 -17 92q-12 12 -32 12q-21 0 -33 -12q-17 -18 -17 -92q0 -73 18 -92q12 -12 32 -12t32 12q17 18 17 92z" />
    <glyph glyph-name="nine.tosf" horiz-adv-x="401" 
d="M362 378q0 -94 -29 -168l-125 -328h-110l117 288q-16 -12 -43 -12q-60 0 -95 44q-20 26 -28 62.5t-8 113.5q0 68 8 103.5t27 63.5q40 57 126 57q85 0 125 -57q20 -30 27.5 -66t7.5 -101zM256 376q0 93 -16 113q-14 18 -38 18q-26 0 -39 -18q-16 -20 -16 -113t16 -113
q13 -18 39 -18q24 0 38 18q16 20 16 113z" />
    <glyph glyph-name="uni2007.tosf" horiz-adv-x="401" 
 />
    <glyph glyph-name="hyphen.case" horiz-adv-x="295" 
d="M249 305h-202v101h202v-101z" />
    <glyph glyph-name="exclamdown.case" horiz-adv-x="257" 
d="M170 0h-106v513h106v-513zM179 589h-123v123h123v-123z" />
    <glyph glyph-name="guillemotleft.case" horiz-adv-x="414" 
d="M185 107l-161 249l161 248v-158l-61 -90l61 -92v-157zM367 107l-160 249l160 248v-158l-62 -90l62 -92v-157z" />
    <glyph glyph-name="uni00AD.case" horiz-adv-x="295" 
d="M249 305h-202v101h202v-101z" />
    <glyph glyph-name="guillemotright.case" horiz-adv-x="414" 
d="M389 356l-160 -249v157l61 92l-61 90v158zM207 356l-160 -249v157l62 92l-62 90v158z" />
    <glyph glyph-name="questiondown.case" horiz-adv-x="426" 
d="M370 186q0 -101 -47 -145q-51 -47 -120 -47q-78 0 -122 46q-48 48 -48 149q0 78 34 123l59 78q23 31 23 65v58h106v-70q0 -45 -31 -86l-59 -78q-26 -34 -26 -93q0 -56 20 -78q17 -19 43 -19t43 19q19 21 19 78h106zM264 589h-123v123h123v-123z" />
    <glyph glyph-name="endash.case" horiz-adv-x="457" 
d="M413 305h-369v101h369v-101z" />
    <glyph glyph-name="emdash.case" horiz-adv-x="711" 
d="M665 305h-618v101h618v-101z" />
    <glyph glyph-name="afii00208.case" horiz-adv-x="711" 
d="M664 306h-617v100h617v-100z" />
    <glyph glyph-name="guilsinglleft.case" horiz-adv-x="231" 
d="M185 107l-161 249l161 248v-158l-61 -90l61 -92v-157z" />
    <glyph glyph-name="guilsinglright.case" horiz-adv-x="231" 
d="M207 356l-160 -249v157l60 92l-60 90v158z" />
    <glyph glyph-name="caroncomma.ss01" horiz-adv-x="500" 
d="M491 611l-79 -56v193h79v-137z" />
    <glyph glyph-name="commaaccent.ss01" 
d="M253 -128q0 -42 -29.5 -70t-78.5 -28v61q18 0 29 11t11 26q0 16 -11.5 27t-28.5 11v60q49 0 78.5 -28t29.5 -70z" />
    <glyph glyph-name="commaturn.ss01" 
d="M256 569q-49 0 -78.5 28t-29.5 70t29.5 70t78.5 28v-60q-17 0 -28 -11t-11 -27q0 -15 10.5 -26t28.5 -11v-61z" />
    <glyph glyph-name="exclam.ss01" horiz-adv-x="257" 
d="M193 200h-106v512h106v-512zM210 66q0 -29 -20.5 -49.5t-49.5 -20.5t-49.5 20.5t-20.5 49.5t20.5 50t49.5 21t49.5 -21t20.5 -50z" />
    <glyph glyph-name="period.ss01" horiz-adv-x="234" 
d="M187 67q0 -29 -20.5 -50t-49.5 -21t-49.5 21t-20.5 50t20.5 49.5t49.5 20.5t49.5 -20.5t20.5 -49.5z" />
    <glyph glyph-name="colon.ss01" horiz-adv-x="257" 
d="M210 366q0 -29 -20.5 -49.5t-49.5 -20.5t-49.5 20.5t-20.5 49.5t20.5 50t49.5 21t49.5 -21t20.5 -50zM210 66q0 -29 -20.5 -49.5t-49.5 -20.5t-49.5 20.5t-20.5 49.5t20.5 50t49.5 21t49.5 -21t20.5 -50z" />
    <glyph glyph-name="semicolon.ss01" horiz-adv-x="257" 
d="M198 -65l-116 -85v274h116v-189zM210 366q0 -29 -20.5 -49.5t-49.5 -20.5t-49.5 20.5t-20.5 49.5t20.5 50t49.5 21t49.5 -21t20.5 -50z" />
    <glyph glyph-name="question.ss01" horiz-adv-x="426" 
d="M393 524q0 -78 -34 -123l-59 -79q-23 -31 -23 -65v-57h-106v69q0 45 31 86l59 79q26 34 26 93q0 55 -20 77q-17 19 -43 19t-43 -18q-19 -21 -19 -78h-106q0 100 47 144q51 47 120 47q79 0 122 -45q48 -48 48 -149zM294 66q0 -29 -20.5 -49.5t-49.5 -20.5t-49.5 20.5
t-20.5 49.5t20.5 50t49.5 21t49.5 -21t20.5 -50z" />
    <glyph glyph-name="at.ss01" horiz-adv-x="837" 
d="M478 329q6 69 -34 69q-22 0 -38 -21q-21 -26 -39 -112q-8 -39 -10 -73q-3 -63 33 -63q22 0 40 23q23 32 39 112q8 47 9 65zM787 361q0 -131 -77 -226t-201 -95h-79l9 45q-43 -51 -92 -51q-52 0 -75.5 35.5t-23.5 91.5q0 51 11 103q18 81 34 121t41 67q38 41 90 41
q56 0 81 -51l10 45h104l-74 -372q71 6 116 76.5t45 167.5q0 122 -65.5 196.5t-172.5 74.5q-88 0 -162.5 -55.5t-116 -146.5t-41.5 -196q0 -160 78.5 -249t214.5 -89h64l-15 -75h-64q-166 0 -265.5 112t-99.5 300q0 201 121 338t288 137q141 0 229 -96t88 -249z" />
    <glyph glyph-name="i.ss01" horiz-adv-x="210" 
d="M158 0h-106v513h106v-513zM172 657q0 -28 -19.5 -47.5t-47.5 -19.5t-47.5 19.5t-19.5 47.5t19.5 47.5t47.5 19.5t47.5 -19.5t19.5 -47.5z" />
    <glyph glyph-name="j.ss01" horiz-adv-x="210" 
d="M158 -25q0 -86 -54 -127q-43 -33 -124 -33v95q37 0 54.5 16t17.5 55v532h106v-538zM172 657q0 -28 -19.5 -47.5t-47.5 -19.5t-47.5 19.5t-19.5 47.5t19.5 47.5t47.5 19.5t47.5 -19.5t19.5 -47.5z" />
    <glyph glyph-name="exclamdown.ss01" horiz-adv-x="257" 
d="M170 -185h-106v513h106v-513zM187 461q0 -29 -20.5 -49.5t-49.5 -20.5t-49.5 20.5t-20.5 49.5t20.5 49.5t49.5 20.5t49.5 -20.5t20.5 -49.5z" />
    <glyph glyph-name="dieresis.ss01" horiz-adv-x="399" 
d="M340 646q0 -22 -16 -38.5t-39 -16.5t-39.5 16t-16.5 39t16.5 39t39.5 16t39 -16t16 -39zM170 646q0 -22 -16 -38.5t-39 -16.5t-39.5 16t-16.5 39t16.5 39t39.5 16t39 -16t16 -39z" />
    <glyph glyph-name="periodcentered.ss01" horiz-adv-x="280" 
d="M226 301q0 -35 -25.5 -60.5t-60.5 -25.5t-60.5 25.5t-25.5 60.5t25.5 60.5t60.5 25.5t60.5 -25.5t25.5 -60.5z" />
    <glyph glyph-name="cedilla.ss01" 
d="M253 -128q0 -42 -29.5 -70t-78.5 -28v61q18 0 29 11t11 26q0 16 -11.5 27t-28.5 11v60q49 0 78.5 -28t29.5 -70z" />
    <glyph glyph-name="questiondown.ss01" horiz-adv-x="426" 
d="M370 1q0 -101 -47 -145q-51 -47 -120 -47q-78 0 -122 46q-48 48 -48 149q0 78 34 123l59 78q23 31 23 65v58h106v-70q0 -45 -31 -86l-59 -78q-26 -34 -26 -93q0 -55 20 -78q17 -19 43 -19t43 19q19 21 19 78h106zM273 461q0 -29 -21 -49.5t-50 -20.5t-49.5 20.5
t-20.5 49.5t20.5 49.5t49.5 20.5t50 -20.5t21 -49.5z" />
    <glyph glyph-name="Adieresis.ss01" horiz-adv-x="468" 
d="M462 0h-117l-29 141h-165l-28 -141h-118l175 712h109zM295 242l-61 298l-61 -298h122zM205 819q0 -23 -16.5 -39t-39.5 -16t-39 16t-16 39t16 39t39 16t39.5 -16t16.5 -39zM375 819q0 -23 -16.5 -39t-39.5 -16t-39 16t-16 39t16 39t39 16t39.5 -16t16.5 -39z" />
    <glyph glyph-name="Ccedilla.ss01" horiz-adv-x="447" 
d="M413 189q-3 -101 -59 -152q-48 -45 -123 -45q-87 0 -138 61q-33 40 -42.5 102.5t-9.5 200.5t9.5 200.5t42.5 102.5q51 61 138 61q76 0 125 -46q54 -49 57 -150h-112q-2 48 -17 69q-16 26 -53 26q-36 0 -53 -27q-15 -24 -20 -76.5t-5 -159.5t5 -159.5t20 -76.5
q17 -27 53 -27q37 0 53 26q15 23 17 70h112zM280 -128q0 -42 -29.5 -70t-78.5 -28v61q18 0 29 11t11 26q0 16 -11 27t-29 11v60q49 0 78.5 -28t29.5 -70z" />
    <glyph glyph-name="Edieresis.ss01" 
d="M359 0h-299v712h299v-101h-187v-202h161v-101h-161v-207h187v-101zM184 819q0 -23 -16.5 -39t-39.5 -16t-39 16t-16 39t16.5 39t38.5 16q23 0 39.5 -16t16.5 -39zM354 819q0 -23 -16.5 -39t-39.5 -16t-39 16t-16 39t16.5 39t38.5 16q23 0 39.5 -16t16.5 -39z" />
    <glyph glyph-name="Idieresis.ss01" horiz-adv-x="232" 
d="M172 0h-112v712h112v-712zM87 819q0 -23 -16.5 -39t-39.5 -16t-39 16t-16 39t16 39t39 16t39.5 -16t16.5 -39zM257 819q0 -23 -16.5 -39t-39.5 -16t-39 16t-16 39t16 39t39 16t39.5 -16t16.5 -39z" />
    <glyph glyph-name="Odieresis.ss01" horiz-adv-x="462" 
d="M421 356q0 -139 -9 -201.5t-43 -101.5q-51 -61 -138 -61t-138 61q-33 40 -42.5 102.5t-9.5 200.5t9.5 200.5t42.5 102.5q51 61 138 61t138 -61q34 -39 43 -101.5t9 -201.5zM309 356q0 107 -4.5 159.5t-19.5 76.5q-17 27 -54 27q-36 0 -53 -27q-25 -40 -25 -236t25 -236
q17 -27 53 -27q37 0 54 27q15 24 19.5 76.5t4.5 159.5zM202 819q0 -23 -16.5 -39t-39.5 -16t-39 16t-16 39t16.5 39t38.5 16q23 0 39.5 -16t16.5 -39zM372 819q0 -23 -16.5 -39t-39.5 -16t-39 16t-16 39t16.5 39t38.5 16q23 0 39.5 -16t16.5 -39z" />
    <glyph glyph-name="Udieresis.ss01" horiz-adv-x="471" 
d="M417 175q0 -80 -49 -131q-51 -52 -132 -52q-82 0 -133 52q-49 51 -49 131v537h112v-543q0 -37 20 -56.5t50 -19.5t49.5 19.5t19.5 56.5v543h112v-537zM206 819q0 -23 -16.5 -39t-39.5 -16t-39 16t-16 39t16.5 39t38.5 16q23 0 39.5 -16t16.5 -39zM376 819
q0 -23 -16.5 -39t-39.5 -16t-39 16t-16 39t16.5 39t38.5 16q23 0 39.5 -16t16.5 -39z" />
    <glyph glyph-name="adieresis.ss01" horiz-adv-x="399" 
d="M350 0h-100v45q-18 -25 -32 -35q-26 -18 -60 -18q-61 0 -99 44q-32 38 -32 118q0 75 49 118q41 36 121 36h47v73q0 61 -51 61q-22 0 -35 -15q-16 -17 -16 -49h-106q0 69 45 114q43 43 111 43q74 0 112 -39q46 -46 46 -124v-372zM244 155v78h-35q-38 0 -55 -16
q-21 -19 -21 -59q0 -73 55 -73q24 0 40 19t16 51zM335 646q0 -23 -16 -39t-39 -16q-22 0 -38.5 16.5t-16.5 38.5q0 23 16 39t39 16t39 -16t16 -39zM165 646q0 -23 -16 -39t-39 -16q-22 0 -38.5 16.5t-16.5 38.5q0 23 16 39t39 16t39 -16t16 -39z" />
    <glyph glyph-name="ccedilla.ss01" horiz-adv-x="384" 
d="M356 155q-5 -83 -46 -124q-39 -39 -112 -39q-85 0 -125 56q-37 50 -37 216q0 164 37 216q40 55 125 55q70 0 111 -38q42 -40 47 -124h-105q-2 34 -14 49q-13 19 -39 19q-27 0 -41 -22q-15 -26 -15 -155t15 -156q13 -21 41 -21q26 0 39 18q12 17 14 50h105zM253 -128
q0 -42 -29.5 -70t-78.5 -28v61q18 0 29 11t11 26q0 16 -11.5 27t-28.5 11v60q49 0 78.5 -28t29.5 -70z" />
    <glyph glyph-name="edieresis.ss01" horiz-adv-x="394" 
d="M360 233h-218q0 -100 16 -125q14 -21 41 -21q26 0 40 20q13 16 13 48h106q-3 -77 -45 -121q-39 -42 -114 -42q-72 0 -114 43q-30 31 -39.5 87t-9.5 142t9.5 142t39.5 87q41 42 113 42q71 0 113 -42q29 -29 39 -91t10 -169zM254 311q0 87 -15 109q-15 21 -41 21t-41 -21
q-15 -22 -15 -109h112zM338 646q0 -23 -16 -39t-39 -16t-39 16.5t-16 38.5q0 23 16 39t39 16t39 -16t16 -39zM168 646q0 -23 -16 -39t-39 -16t-39 16.5t-16 38.5q0 23 16 39t39 16t39 -16t16 -39z" />
    <glyph glyph-name="idieresis.ss01" horiz-adv-x="210" 
d="M158 0h-106v513h106v-513zM245 646q0 -23 -16 -39t-39 -16q-22 0 -38.5 16.5t-16.5 38.5q0 23 16 39t39 16t39 -16t16 -39zM75 646q0 -23 -16 -39t-39 -16q-22 0 -38.5 16.5t-16.5 38.5q0 23 16 39t39 16t39 -16t16 -39z" />
    <glyph glyph-name="odieresis.ss01" 
d="M360 264q0 -164 -37 -216q-40 -56 -125 -56t-125 56q-37 52 -37 216t37 216q40 55 125 55t125 -55q37 -52 37 -216zM254 264q0 129 -15 155q-14 22 -41 22t-41 -22q-15 -26 -15 -155q0 -130 15 -156q13 -21 41 -21t41 21q15 26 15 156zM338 646q0 -23 -16 -39t-39 -16
t-39 16.5t-16 38.5q0 23 16 39t39 16t39 -16t16 -39zM168 646q0 -23 -16 -39t-39 -16t-39 16.5t-16 38.5q0 23 16 39t39 16t39 -16t16 -39z" />
    <glyph glyph-name="divide.ss01" horiz-adv-x="457" 
d="M413 229h-369v101h369v-101zM299 463q0 -29 -20.5 -49.5t-49.5 -20.5t-50 21t-21 49q0 29 21 50t50 21q28 0 49 -21t21 -50zM299 95q0 -29 -20.5 -49.5t-49.5 -20.5t-50 21t-21 49q0 29 21 50t50 21q28 0 49 -21t21 -50z" />
    <glyph glyph-name="udieresis.ss01" horiz-adv-x="417" 
d="M365 0h-101v40q-17 -23 -36 -33q-25 -15 -53 -15q-61 0 -96 41q-30 34 -30 114v380h106v-379q0 -30 14.5 -45.5t37.5 -15.5t37.5 15.5t14.5 45.5v379h106v-527zM345 646q0 -23 -16 -39t-39 -16q-22 0 -38.5 16.5t-16.5 38.5q0 23 16 39t39 16t39 -16t16 -39zM175 646
q0 -23 -16 -39t-39 -16q-22 0 -38.5 16.5t-16.5 38.5q0 23 16 39t39 16t39 -16t16 -39z" />
    <glyph glyph-name="ydieresis.ss01" horiz-adv-x="382" 
d="M377 527l-148 -594q-18 -73 -65.5 -95.5t-131.5 -22.5v94q28 1 43 3.5t30 15t21 36.5l9 37l-131 526h117l70 -359l69 359h117zM333 646q0 -23 -16 -39t-39 -16q-22 0 -38.5 16.5t-16.5 38.5q0 23 16 39t39 16t39 -16t16 -39zM163 646q0 -23 -16 -39t-39 -16
q-22 0 -38.5 16.5t-16.5 38.5q0 23 16 39t39 16t39 -16t16 -39z" />
    <glyph glyph-name="Aogonek.ss01" horiz-adv-x="468" 
d="M462 0h-117l-29 141h-165l-28 -141h-118l175 712h109zM295 242l-61 298l-61 -298h122zM447 -226q-49 0 -78.5 28t-29.5 70t29.5 70t78.5 28v-60q-17 0 -28 -11t-11 -27t11 -26.5t28 -10.5v-61z" />
    <glyph glyph-name="aogonek.ss01" horiz-adv-x="399" 
d="M350 0h-100v45q-18 -25 -32 -35q-26 -18 -60 -18q-61 0 -99 44q-32 38 -32 118q0 75 49 118q41 36 121 36h47v73q0 61 -51 61q-22 0 -35 -15q-16 -17 -16 -49h-106q0 69 45 114q43 43 111 43q74 0 112 -39q46 -46 46 -124v-372zM244 155v78h-35q-38 0 -55 -16
q-21 -19 -21 -59q0 -73 55 -73q24 0 40 19t16 51zM338 -226q-49 0 -78.5 28t-29.5 70t29.5 70t78.5 28v-60q-17 0 -28 -11t-11 -27t10.5 -26.5t28.5 -10.5v-61z" />
    <glyph glyph-name="Cdotaccent.ss01" horiz-adv-x="447" 
d="M413 189q-3 -101 -59 -152q-48 -45 -123 -45q-87 0 -138 61q-33 40 -42.5 102.5t-9.5 200.5t9.5 200.5t42.5 102.5q51 61 138 61q76 0 125 -46q54 -49 57 -150h-112q-2 48 -17 69q-16 26 -53 26q-36 0 -53 -27q-15 -24 -20 -76.5t-5 -159.5t5 -159.5t20 -76.5
q17 -27 53 -27q37 0 53 26q15 23 17 70h112zM287 818q0 -23 -16.5 -39.5t-39.5 -16.5t-39 16.5t-16 39.5q0 22 16 38.5t39 16.5t39.5 -16t16.5 -39z" />
    <glyph glyph-name="cdotaccent.ss01" horiz-adv-x="384" 
d="M356 155q-5 -83 -46 -124q-39 -39 -112 -39q-85 0 -125 56q-37 50 -37 216q0 164 37 216q40 55 125 55q70 0 111 -38q42 -40 47 -124h-105q-2 34 -14 49q-13 19 -39 19q-27 0 -41 -22q-15 -26 -15 -155t15 -156q13 -21 41 -21q26 0 39 18q12 17 14 50h105zM253 646
q0 -23 -16 -39t-39 -16q-22 0 -38.5 16.5t-16.5 38.5q0 23 16 39t39 16t39 -16t16 -39z" />
    <glyph glyph-name="dcaron.ss01" horiz-adv-x="408" 
d="M356 0h-102v40q-8 -18 -35 -33q-23 -15 -53 -15q-59 0 -93 41q-24 29 -30.5 80t-6.5 151t6.5 150.5t30.5 79.5q34 41 93 41q30 0 53 -14q15 -8 31 -28v219h106v-712zM250 150v227q0 33 -16 49q-15 15 -36 15q-24 0 -39 -21q-17 -22 -17 -156q0 -135 17 -157
q14 -20 39 -20q22 0 36 14q16 16 16 49zM490 610l-79 -56v193h79v-137z" />
    <glyph glyph-name="Edotaccent.ss01" 
d="M359 0h-299v712h299v-101h-187v-202h161v-101h-161v-207h187v-101zM263 818q0 -23 -16.5 -39.5t-39.5 -16.5t-39 16.5t-16 39.5q0 22 16 38.5t39 16.5t39.5 -16t16.5 -39z" />
    <glyph glyph-name="edotaccent.ss01" horiz-adv-x="394" 
d="M360 233h-218q0 -100 16 -125q14 -21 41 -21q26 0 40 20q13 16 13 48h106q-3 -77 -45 -121q-39 -42 -114 -42q-72 0 -114 43q-30 31 -39.5 87t-9.5 142t9.5 142t39.5 87q41 42 113 42q71 0 113 -42q29 -29 39 -91t10 -169zM254 311q0 87 -15 109q-15 21 -41 21t-41 -21
q-15 -22 -15 -109h112zM253 646q0 -23 -16 -39t-39 -16q-22 0 -38.5 16.5t-16.5 38.5q0 23 16 39t39 16t39 -16t16 -39z" />
    <glyph glyph-name="Eogonek.ss01" 
d="M359 0h-299v712h299v-101h-187v-202h161v-101h-161v-207h187v-101zM349 -226q-49 0 -78.5 28t-29.5 70t29.5 70t78.5 28v-60q-17 0 -28 -11t-11 -27t11 -26.5t28 -10.5v-61z" />
    <glyph glyph-name="eogonek.ss01" horiz-adv-x="394" 
d="M360 233h-218q0 -100 16 -125q14 -21 41 -21q26 0 40 20q13 16 13 48h106q-3 -77 -45 -121q-39 -42 -114 -42q-72 0 -114 43q-30 31 -39.5 87t-9.5 142t9.5 142t39.5 87q41 42 113 42q71 0 113 -42q29 -29 39 -91t10 -169zM254 311q0 87 -15 109q-15 21 -41 21t-41 -21
q-15 -22 -15 -109h112zM301 -226q-49 0 -78.5 28t-29.5 70t29.5 70t78.5 28v-60q-17 0 -28 -11t-11 -27t11 -26.5t28 -10.5v-61z" />
    <glyph glyph-name="Gdotaccent.ss01" horiz-adv-x="455" 
d="M413 190q0 -95 -49.5 -146.5t-132.5 -51.5q-87 0 -138 61q-33 40 -42.5 102.5t-9.5 200.5t9.5 200.5t42.5 102.5q51 61 138 61q79 0 127 -48q52 -53 55 -149h-112q-2 96 -70 96q-36 0 -53 -27q-15 -24 -20 -76.5t-5 -159.5t5 -159.5t20 -76.5q17 -27 53 -27
q35 0 52.5 25.5t17.5 65.5v111h-70v92h182v-197zM287 818q0 -23 -16.5 -39.5t-39.5 -16.5t-39 16.5t-16 39.5q0 22 16 38.5t39 16.5t39.5 -16t16.5 -39z" />
    <glyph glyph-name="gdotaccent.ss01" horiz-adv-x="408" 
d="M356 527v-537q0 -92 -45 -137q-43 -43 -114 -43q-73 0 -114 41q-44 43 -44 116h105q0 -32 14 -50q13 -16 39 -16q24 0 38 17q15 19 15 65v91q-13 -17 -29 -28q-21 -14 -53 -14q-55 0 -90 39q-25 29 -33.5 76t-8.5 137q0 89 8.5 136t33.5 76q35 39 90 39q34 0 55 -14
q18 -12 31 -28v34h102zM250 187v190q0 33 -16 49q-15 15 -36 15q-24 0 -39 -21q-17 -22 -17 -138t17 -138q17 -20 39 -20t36 14q16 16 16 49zM253 646q0 -23 -16 -39t-39 -16q-22 0 -38.5 16.5t-16.5 38.5q0 23 16 39t39 16t39 -16t16 -39z" />
    <glyph glyph-name="Gcommaaccent.ss01" horiz-adv-x="455" 
d="M413 190q0 -95 -49.5 -146.5t-132.5 -51.5q-87 0 -138 61q-33 40 -42.5 102.5t-9.5 200.5t9.5 200.5t42.5 102.5q51 61 138 61q79 0 127 -48q52 -53 55 -149h-112q-2 96 -70 96q-36 0 -53 -27q-15 -24 -20 -76.5t-5 -159.5t5 -159.5t20 -76.5q17 -27 53 -27
q35 0 52.5 25.5t17.5 65.5v111h-70v92h182v-197zM280 -128q0 -42 -29.5 -70t-78.5 -28v61q18 0 29 11t11 26q0 16 -11 27t-29 11v60q49 0 78.5 -28t29.5 -70z" />
    <glyph glyph-name="gcommaaccent.ss01" horiz-adv-x="408" 
d="M356 527v-537q0 -92 -45 -137q-43 -43 -114 -43q-73 0 -114 41q-44 43 -44 116h105q0 -32 14 -50q13 -16 39 -16q24 0 38 17q15 19 15 65v91q-13 -17 -29 -28q-21 -14 -53 -14q-55 0 -90 39q-25 29 -33.5 76t-8.5 137q0 89 8.5 136t33.5 76q35 39 90 39q34 0 55 -14
q18 -12 31 -28v34h102zM250 187v190q0 33 -16 49q-15 15 -36 15q-24 0 -39 -21q-17 -22 -17 -138t17 -138q17 -20 39 -20t36 14q16 16 16 49zM256 569q-49 0 -78.5 28t-29.5 70t29.5 70t78.5 28v-60q-17 0 -28 -11t-11 -27q0 -15 10.5 -26t28.5 -11v-61z" />
    <glyph glyph-name="Iogonek.ss01" horiz-adv-x="232" 
d="M172 0h-112v712h112v-712zM167 -226q-49 0 -78.5 28t-29.5 70t29.5 70t78.5 28v-60q-17 0 -28 -11t-11 -27t11 -26.5t28 -10.5v-61z" />
    <glyph glyph-name="iogonek.ss01" horiz-adv-x="210" 
d="M158 0h-106v513h106v-513zM172 657q0 -28 -19.5 -47.5t-47.5 -19.5t-47.5 19.5t-19.5 47.5t19.5 47.5t47.5 19.5t47.5 -19.5t19.5 -47.5zM156 -226q-49 0 -78.5 28t-29.5 70t29.5 70t78.5 28v-60q-17 0 -28 -11t-11 -27t10.5 -26.5t28.5 -10.5v-61z" />
    <glyph glyph-name="Idotaccent.ss01" horiz-adv-x="232" 
d="M172 0h-112v712h112v-712zM172 818q0 -23 -16.5 -39.5t-39.5 -16.5t-39 16.5t-16 39.5q0 22 16.5 38.5t38.5 16.5q23 0 39.5 -16t16.5 -39z" />
    <glyph glyph-name="ij.ss01" horiz-adv-x="420" 
d="M158 0h-106v513h106v-513zM172 657q0 -28 -19.5 -47.5t-47.5 -19.5t-47.5 19.5t-19.5 47.5t19.5 47.5t47.5 19.5t47.5 -19.5t19.5 -47.5zM368 -25q0 -86 -54 -127q-43 -33 -124 -33v95q37 0 54.5 16t17.5 55v532h106v-538zM382 657q0 -28 -19.5 -47.5t-47.5 -19.5
t-47.5 19.5t-19.5 47.5t19.5 47.5t47.5 19.5t47.5 -19.5t19.5 -47.5z" />
    <glyph glyph-name="Kcommaaccent.ss01" horiz-adv-x="469" 
d="M462 0h-121l-115 293l-54 -110v-183h-112v712h112v-335l155 335h113l-143 -295zM303 -128q0 -42 -29.5 -70t-78.5 -28v61q18 0 29 11t11 26q0 16 -11.5 27t-28.5 11v60q49 0 78.5 -28t29.5 -70z" />
    <glyph glyph-name="kcommaaccent.ss01" horiz-adv-x="416" 
d="M409 0h-117l-89 222l-45 -71v-151h-106v712h106v-410l133 225h111l-131 -209zM269 -128q0 -42 -29.5 -70t-78.5 -28v61q18 0 29 11t11 26q0 16 -11.5 27t-28.5 11v60q49 0 78.5 -28t29.5 -70z" />
    <glyph glyph-name="Lcommaaccent.ss01" horiz-adv-x="383" 
d="M359 0h-299v712h112v-611h187v-101zM262 -128q0 -42 -29.5 -70t-78.5 -28v61q18 0 29 11t11 26q0 16 -11 27t-29 11v60q49 0 78.5 -28t29.5 -70z" />
    <glyph glyph-name="lcommaaccent.ss01" horiz-adv-x="244" 
d="M227 0q-84 0 -125 32q-53 40 -53 128v552h106v-546q0 -71 72 -71v-95zM198 -128q0 -42 -29.5 -70t-78.5 -28v61q18 0 29 11t11 26q0 16 -11 27t-29 11v60q49 0 78.5 -28t29.5 -70z" />
    <glyph glyph-name="Lcaron.ss01" horiz-adv-x="383" 
d="M359 0h-299v712h112v-611h187v-101zM327 575l-79 -56v193h79v-137z" />
    <glyph glyph-name="lcaron.ss01" horiz-adv-x="244" 
d="M227 0q-84 0 -125 32q-53 40 -53 128v552h106v-546q0 -71 72 -71v-95zM288 611l-79 -56v193h79v-137z" />
    <glyph glyph-name="Ldot.ss01" horiz-adv-x="383" 
d="M361 358q0 -23 -16 -39t-39 -16q-22 0 -38.5 16.5t-16.5 38.5q0 23 16 39t39 16t39 -16t16 -39zM359 0h-299v712h112v-611h187v-101z" />
    <glyph glyph-name="ldot.ss01" horiz-adv-x="295" 
d="M306 301q0 -23 -16 -39t-39 -16t-39 16t-16 39t16 39t39 16t39 -16t16 -39zM227 0q-84 0 -125 32q-53 40 -53 128v552h106v-546q0 -71 72 -71v-95z" />
    <glyph glyph-name="Ncommaaccent.ss01" horiz-adv-x="499" 
d="M439 0h-99l-168 423v-423h-112v712h100l167 -423v423h112v-712zM305 -128q0 -42 -29.5 -70t-78.5 -28v61q18 0 29 11t11 26q0 16 -11.5 27t-28.5 11v60q49 0 78.5 -28t29.5 -70z" />
    <glyph glyph-name="ncommaaccent.ss01" horiz-adv-x="417" 
d="M368 0h-106v379q0 30 -14.5 45.5t-37.5 15.5t-37.5 -15.5t-14.5 -45.5v-379h-106v527h102v-39q18 24 35 33q23 14 53 14q61 0 96 -41q30 -34 30 -114v-380zM264 -128q0 -42 -29.5 -70t-78.5 -28v61q18 0 29 11t11 26q0 16 -11 27t-29 11v60q49 0 78.5 -28t29.5 -70z" />
    <glyph glyph-name="Rcommaaccent.ss01" horiz-adv-x="478" 
d="M445 0h-117l-93 292h-63v-292h-112v712h180q97 0 139.5 -49.5t42.5 -160.5q0 -71 -18.5 -116t-64.5 -70zM310 502q0 52 -14 80.5t-55 28.5h-69v-218h69q41 0 55 28.5t14 80.5zM302 -128q0 -42 -29.5 -70t-78.5 -28v61q18 0 29 11t11 26q0 16 -11 27t-29 11v60
q49 0 78.5 -28t29.5 -70z" />
    <glyph glyph-name="rcommaaccent.ss01" horiz-adv-x="299" 
d="M282 432h-36q-38 0 -63 -24.5t-25 -66.5v-341h-106v527h102v-56q16 24 46 42q36 22 82 22v-103zM165 -128q0 -42 -29.5 -70t-78.5 -28v61q18 0 29 11t11 26q0 16 -11.5 27t-28.5 11v60q49 0 78.5 -28t29.5 -70z" />
    <glyph glyph-name="Scedilla.ss01" horiz-adv-x="442" 
d="M404 197q0 -112 -46 -157q-49 -47 -139 -47q-91 0 -138 47q-46 46 -46 153h112q0 -57 20 -80q17 -19 52 -19q37 0 54 20q19 22 19 79t-12.5 78.5t-54.5 38.5l-85 35q-55 23 -77 60.5t-22 118.5q0 99 58 151q49 43 122 43q83 0 128 -43q50 -49 50 -155h-112q0 54 -17 76
q-16 21 -50 21q-30 0 -48 -20q-19 -22 -19 -70q0 -44 11 -62.5t48 -33.5l84 -34q63 -26 85.5 -68t22.5 -132zM272 -128q0 -42 -29.5 -70t-78.5 -28v61q18 0 29 11t11 26q0 16 -11 27t-29 11v60q49 0 78.5 -28t29.5 -70z" />
    <glyph glyph-name="scedilla.ss01" horiz-adv-x="381" 
d="M352 152q0 -70 -47 -117q-43 -43 -115 -43q-75 0 -116 43q-47 49 -47 119h105q0 -32 18 -50q15 -16 40 -16t41 15q15 13 15 42q0 23 -11 39q-12 18 -41 30l-70 31q-54 24 -77 61q-17 27 -17 72q0 65 46 113q44 44 114 44q69 0 111 -40q45 -43 45 -117h-104q0 32 -15 48
t-37 16q-24 0 -39 -15t-15 -40q0 -19 8 -31q11 -18 39 -30l70 -30q54 -24 77 -58q22 -31 22 -86zM239 -128q0 -42 -29.5 -70t-78.5 -28v61q18 0 29 11t11 26q0 16 -11.5 27t-28.5 11v60q49 0 78.5 -28t29.5 -70z" />
    <glyph glyph-name="Tcommaaccent.ss01" horiz-adv-x="393" 
d="M372 611h-120v-611h-112v611h-119v101h351v-101zM251 -128q0 -42 -29.5 -70t-78.5 -28v61q18 0 29 11t11 26q0 16 -11.5 27t-28.5 11v60q49 0 78.5 -28t29.5 -70z" />
    <glyph glyph-name="tcommaaccent.ss01" horiz-adv-x="274" 
d="M254 0q-87 0 -128 32q-53 42 -53 128v272h-54v81h54v149h106v-149h73v-81h-73v-266q0 -71 75 -71v-95zM216 -128q0 -42 -29.5 -70t-78.5 -28v61q18 0 29 11t11 26q0 16 -11 27t-29 11v60q49 0 78.5 -28t29.5 -70z" />
    <glyph glyph-name="tcaron.ss01" horiz-adv-x="314" 
d="M254 0q-87 0 -128 32q-53 42 -53 128v272h-54v81h54v149h106v-149h73v-81h-73v-266q0 -71 75 -71v-95zM309 610l-79 -56v193h79v-137z" />
    <glyph glyph-name="Uogonek.ss01" horiz-adv-x="471" 
d="M417 175q0 -80 -49 -131q-51 -52 -132 -52q-82 0 -133 52q-49 51 -49 131v537h112v-543q0 -37 20 -56.5t50 -19.5t49.5 19.5t19.5 56.5v543h112v-537zM376 -226q-49 0 -78.5 28t-29.5 70t29.5 70t78.5 28v-60q-17 0 -28 -11t-11 -27t10.5 -26.5t28.5 -10.5v-61z" />
    <glyph glyph-name="uogonek.ss01" horiz-adv-x="417" 
d="M365 0h-101v40q-17 -23 -36 -33q-25 -15 -53 -15q-61 0 -96 41q-30 34 -30 114v380h106v-379q0 -30 14.5 -45.5t37.5 -15.5t37.5 15.5t14.5 45.5v379h106v-527zM357 -226q-49 0 -78.5 28t-29.5 70t29.5 70t78.5 28v-60q-17 0 -28 -11t-11 -27t11 -26.5t28 -10.5v-61z" />
    <glyph glyph-name="Ydieresis.ss01" horiz-adv-x="389" 
d="M388 712l-138 -433v-279h-112v279l-138 433h124l70 -282l71 282h123zM166 819q0 -23 -16.5 -39t-39.5 -16t-39 16t-16 39t16.5 39t38.5 16q23 0 39.5 -16t16.5 -39zM336 819q0 -23 -16.5 -39t-39.5 -16t-39 16t-16 39t16.5 39t38.5 16q23 0 39.5 -16t16.5 -39z" />
    <glyph glyph-name="Zdotaccent.ss01" horiz-adv-x="373" 
d="M341 0h-310v84l194 527h-182v101h298v-84l-193 -527h193v-101zM250 818q0 -23 -16.5 -39.5t-39.5 -16.5t-39 16.5t-16 39.5q0 22 16.5 38.5t38.5 16.5q23 0 39.5 -16t16.5 -39z" />
    <glyph glyph-name="zdotaccent.ss01" horiz-adv-x="325" 
d="M299 0h-273v80l154 353h-142v94h261v-79l-154 -353h154v-95zM226 646q0 -23 -16 -39t-39 -16t-39 16.5t-16 38.5q0 23 16 39t39 16t39 -16t16 -39z" />
    <glyph glyph-name="uni01C8.ss01" horiz-adv-x="593" 
d="M359 0h-299v712h112v-611h187v-101zM541 -25q0 -86 -54 -127q-43 -33 -124 -33v95q37 0 54.5 16t17.5 55v532h106v-538zM555 657q0 -28 -19.5 -47.5t-47.5 -19.5t-47.5 19.5t-19.5 47.5t19.5 47.5t47.5 19.5t47.5 -19.5t19.5 -47.5z" />
    <glyph glyph-name="uni01C9.ss01" horiz-adv-x="454" 
d="M227 0q-84 0 -125 32q-53 40 -53 128v552h106v-546q0 -71 72 -71v-95zM402 -25q0 -86 -54 -127q-43 -33 -124 -33v95q37 0 54.5 16t17.5 55v532h106v-538zM416 657q0 -28 -19.5 -47.5t-47.5 -19.5t-47.5 19.5t-19.5 47.5t19.5 47.5t47.5 19.5t47.5 -19.5t19.5 -47.5z" />
    <glyph glyph-name="uni01CB.ss01" horiz-adv-x="709" 
d="M439 0h-99l-168 423v-423h-112v712h100l167 -423v423h112v-712zM657 -25q0 -86 -54 -127q-43 -33 -124 -33v95q37 0 54.5 16t17.5 55v532h106v-538zM671 657q0 -28 -19.5 -47.5t-47.5 -19.5t-47.5 19.5t-19.5 47.5t19.5 47.5t47.5 19.5t47.5 -19.5t19.5 -47.5z" />
    <glyph glyph-name="uni01CC.ss01" horiz-adv-x="627" 
d="M368 0h-106v379q0 30 -14.5 45.5t-37.5 15.5t-37.5 -15.5t-14.5 -45.5v-379h-106v527h102v-39q18 24 35 33q23 14 53 14q61 0 96 -41q30 -34 30 -114v-380zM575 -25q0 -86 -54 -127q-43 -33 -124 -33v95q37 0 54.5 16t17.5 55v532h106v-538zM589 657q0 -28 -19.5 -47.5
t-47.5 -19.5t-47.5 19.5t-19.5 47.5t19.5 47.5t47.5 19.5t47.5 -19.5t19.5 -47.5z" />
    <glyph glyph-name="Scommaaccent.ss01" horiz-adv-x="442" 
d="M404 197q0 -112 -46 -157q-49 -47 -139 -47q-91 0 -138 47q-46 46 -46 153h112q0 -57 20 -80q17 -19 52 -19q37 0 54 20q19 22 19 79t-12.5 78.5t-54.5 38.5l-85 35q-55 23 -77 60.5t-22 118.5q0 99 58 151q49 43 122 43q83 0 128 -43q50 -49 50 -155h-112q0 54 -17 76
q-16 21 -50 21q-30 0 -48 -20q-19 -22 -19 -70q0 -44 11 -62.5t48 -33.5l84 -34q63 -26 85.5 -68t22.5 -132zM272 -128q0 -42 -29.5 -70t-78.5 -28v61q18 0 29 11t11 26q0 16 -11 27t-29 11v60q49 0 78.5 -28t29.5 -70z" />
    <glyph glyph-name="scommaaccent.ss01" horiz-adv-x="381" 
d="M352 152q0 -70 -47 -117q-43 -43 -115 -43q-75 0 -116 43q-47 49 -47 119h105q0 -32 18 -50q15 -16 40 -16t41 15q15 13 15 42q0 23 -11 39q-12 18 -41 30l-70 31q-54 24 -77 61q-17 27 -17 72q0 65 46 113q44 44 114 44q69 0 111 -40q45 -43 45 -117h-104q0 32 -15 48
t-37 16q-24 0 -39 -15t-15 -40q0 -19 8 -31q11 -18 39 -30l70 -30q54 -24 77 -58q22 -31 22 -86zM242 -128q0 -42 -29.5 -70t-78.5 -28v61q18 0 29 11t11 26q0 16 -11 27t-29 11v60q49 0 78.5 -28t29.5 -70z" />
    <glyph glyph-name="uni021A.ss01" horiz-adv-x="393" 
d="M372 611h-120v-611h-112v611h-119v101h351v-101zM251 -128q0 -42 -29.5 -70t-78.5 -28v61q18 0 29 11t11 26q0 16 -11.5 27t-28.5 11v60q49 0 78.5 -28t29.5 -70z" />
    <glyph glyph-name="uni021B.ss01" horiz-adv-x="274" 
d="M254 0q-87 0 -128 32q-53 42 -53 128v272h-54v81h54v149h106v-149h73v-81h-73v-266q0 -71 75 -71v-95zM216 -128q0 -42 -29.5 -70t-78.5 -28v61q18 0 29 11t11 26q0 16 -11 27t-29 11v60q49 0 78.5 -28t29.5 -70z" />
    <glyph glyph-name="dotaccent.ss01" horiz-adv-x="399" 
d="M255 646q0 -22 -16.5 -38.5t-38.5 -16.5q-23 0 -39.5 16t-16.5 39t16.5 39t39.5 16t39 -16t16 -39z" />
    <glyph glyph-name="ogonek.ss01" 
d="M234 -226q-49 0 -78.5 28t-29.5 70t29.5 70t78.5 28v-60q-17 0 -28 -11t-11 -27t10.5 -26.5t28.5 -10.5v-61z" />
    <glyph glyph-name="afii10023.ss01" 
d="M359 0h-299v712h299v-101h-187v-202h161v-101h-161v-207h187v-101zM180 819q0 -23 -16.5 -39t-39.5 -16t-39 16t-16 39t16.5 39t38.5 16q23 0 39.5 -16t16.5 -39zM350 819q0 -23 -16.5 -39t-39.5 -16t-39 16t-16 39t16.5 39t38.5 16q23 0 39.5 -16t16.5 -39z" />
    <glyph glyph-name="afii10056.ss01" horiz-adv-x="232" 
d="M172 0h-112v712h112v-712zM87 819q0 -23 -16.5 -39t-39.5 -16t-39 16t-16 39t16 39t39 16t39.5 -16t16.5 -39zM257 819q0 -23 -16.5 -39t-39.5 -16t-39 16t-16 39t16 39t39 16t39.5 -16t16.5 -39z" />
    <glyph glyph-name="afii10058.ss01" horiz-adv-x="739" 
d="M702 216q0 -112 -43.5 -164t-139.5 -52h-179v611h-107q0 -138 -5 -236.5t-17 -166.5t-27 -109t-40.5 -63t-52 -29t-66.5 -7h-12v100h4q20 0 32.5 6t26 26t21.5 61t15 107.5t10 169t3 242.5h327v-278h67q99 0 141 -53.5t42 -164.5zM590 217q0 56 -14 86t-55 30h-69v-232
h69q41 0 55 30t14 86z" />
    <glyph glyph-name="afii10061.ss01" horiz-adv-x="488" 
d="M469 0h-45q-48 0 -75 22t-41 72l-45 161q-10 38 -23.5 50.5t-37.5 12.5h-30v-318h-112v712h112v-293h31q24 0 37 12.5t24 51.5l37 133q14 50 40 73t74 23h44v-100h-14q-21 0 -32 -11t-20 -42l-36 -119q-16 -55 -49 -69q39 -17 53 -70l41 -148q9 -30 20.5 -41.5
t32.5 -11.5h14v-100zM361 899l-87 -139h-74l72 139h89z" />
    <glyph glyph-name="afii10021.ss01" horiz-adv-x="539" 
d="M513 -135h-106v135h-288v-135h-106v236h45q36 114 51.5 253.5t15.5 357.5h329v-611h59v-236zM342 101v510h-110q0 -315 -61 -510h171z" />
    <glyph glyph-name="afii10024.ss01" horiz-adv-x="723" 
d="M63 0h-45v100h14q21 0 32.5 11.5t20.5 41.5l41 148q14 53 53 70q-33 14 -49 69l-36 119q-9 31 -20 42t-32 11h-14v100h44q48 0 74 -23t40 -73l37 -133q11 -39 24 -51.5t37 -12.5h21v293h112v-293h21q24 0 37 12.5t24 51.5l37 133q14 50 40 73t74 23h44v-100h-14
q-21 0 -32 -11t-20 -42l-36 -119q-16 -55 -49 -69q39 -17 53 -70l41 -148q9 -30 20.5 -41.5t32.5 -11.5h14v-100h-45q-48 0 -75 22t-41 72l-45 161q-10 38 -23.5 50.5t-37.5 12.5h-20v-318h-112v318h-20q-24 0 -37.5 -12.5t-23.5 -50.5l-45 -161q-14 -50 -41 -72t-75 -22z
" />
    <glyph glyph-name="afii10028.ss01" horiz-adv-x="488" 
d="M469 0h-45q-48 0 -75 22t-41 72l-45 161q-10 38 -23.5 50.5t-37.5 12.5h-30v-318h-112v712h112v-293h31q24 0 37 12.5t24 51.5l37 133q14 50 40 73t74 23h44v-100h-14q-21 0 -32 -11t-20 -42l-36 -119q-16 -55 -49 -69q39 -17 53 -70l41 -148q9 -30 20.5 -41.5
t32.5 -11.5h14v-100z" />
    <glyph glyph-name="afii10029.ss01" horiz-adv-x="512" 
d="M452 0h-112v611h-107q0 -138 -5 -236.5t-17 -166.5t-27 -109t-40.5 -63t-52 -29t-66.5 -7h-12v100h4q20 0 32.5 6t26 26t21.5 61t15 107.5t10 169t3 242.5h327v-712z" />
    <glyph glyph-name="afii10049.ss01" horiz-adv-x="477" 
d="M415 0h-112v300h-22q-21 0 -34 -13.5t-24 -49.5l-44 -143q-17 -52 -41 -73t-71 -21h-48v100h12q21 0 32.5 11.5t20.5 42.5l30 98q13 44 40 61q-31 13 -52 32t-31 45.5t-14 53t-4 61.5q0 109 42.5 158t139.5 49h180v-712zM303 400v211h-67q-41 0 -56.5 -28t-15.5 -78
q0 -49 15.5 -77t56.5 -28h67z" />
    <glyph glyph-name="afii10066.ss01" horiz-adv-x="400" 
d="M164 559q-12 -20 -19 -68q31 36 85 36q57 0 94 -42q25 -29 32.5 -78t7.5 -143q0 -165 -37 -217q-39 -55 -124 -55q-86 0 -125 55q-37 53 -37 217q0 186 8 250.5t36 106.5q33 50 137 64q20 2 28.5 9.5t9.5 23.5h98q-1 -62 -23 -89t-72 -33q-27 -3 -41.5 -6t-32 -10.5
t-25.5 -20.5zM259 264q0 126 -16 155q-13 22 -40 22q-28 0 -41 -22q-16 -29 -16 -155q0 -127 16 -156q13 -22 41 -22q27 0 40 22q16 29 16 156z" />
    <glyph glyph-name="afii10069.ss01" horiz-adv-x="472" 
d="M450 -134h-101v134h-235v-134h-101v228h40q33 85 45.5 178t12.5 255h290v-433h49v-228zM295 94v339h-82q0 -203 -51 -339h133z" />
    <glyph glyph-name="afii10072.ss01" horiz-adv-x="611" 
d="M60 0h-39v94h10q28 0 40 34l38 97q13 35 38 45q-22 12 -34 45l-34 88q-7 18 -14.5 24t-22.5 6h-13v94h37q42 0 63 -17t38 -62l34 -91q9 -25 17.5 -32t24.5 -7h10v209h105v-209h10q16 0 24.5 7t17.5 32l34 91q17 45 38 62t63 17h37v-94h-13q-15 0 -22.5 -6t-14.5 -24
l-34 -88q-12 -33 -34 -45q25 -10 38 -45l38 -97q12 -34 40 -34h10v-94h-39q-40 0 -60.5 16t-36.5 58l-44 115q-13 35 -41 35h-11v-224h-105v224h-11q-28 0 -41 -35l-44 -115q-16 -42 -36.5 -58t-60.5 -16z" />
    <glyph glyph-name="afii10076.ss01" horiz-adv-x="418" 
d="M398 0h-39q-40 0 -60.5 16t-36.5 58l-44 115q-13 35 -41 35h-20v-224h-105v527h105v-209h19q16 0 24.5 7t17.5 32l34 91q17 45 38 62t63 17h37v-94h-13q-15 0 -22.5 -6t-14.5 -24l-34 -88q-12 -33 -34 -45q25 -10 38 -45l38 -97q12 -34 40 -34h10v-94z" />
    <glyph glyph-name="afii10077.ss01" horiz-adv-x="442" 
d="M390 0h-106v433h-82q0 -145 -8 -229.5t-31 -130.5t-52.5 -59.5t-82.5 -13.5h-15v94h4q36 0 53 27t26 120t9 286h285v-527z" />
    <glyph glyph-name="afii10086.ss01" horiz-adv-x="607" 
d="M570 260q0 -97 -7 -148t-30 -79q-33 -41 -92 -41q-29 0 -54 14q-17 11 -31 28v-222h-106v222q-14 -17 -31 -28q-23 -14 -53 -14q-59 0 -93 41q-23 28 -30 79t-7 148q0 99 7 150.5t30 80.5q35 41 93 41q28 0 53 -15q20 -13 31 -28v223h106v-223q14 17 31 28q27 15 54 15
q58 0 92 -41q24 -29 30.5 -80t6.5 -151zM466 264q0 126 -15 152q-14 22 -42 22q-20 0 -36 -14q-17 -19 -17 -50v-231q0 -26 17 -43q16 -14 36 -14q29 0 42 22q15 26 15 156zM250 143v231q0 33 -17 50q-16 14 -37 14q-27 0 -40 -22q-16 -26 -16 -152q0 -130 16 -156
q12 -22 40 -22q21 0 37 14q17 15 17 43z" />
    <glyph glyph-name="afii10097.ss01" horiz-adv-x="403" 
d="M351 0h-105v211h-16q-15 0 -24 -8t-16 -31l-33 -94q-16 -45 -35.5 -61.5t-63.5 -16.5h-42v93h13q15 0 22.5 7t13.5 25l21 62q10 29 31 39q-76 37 -76 141q0 82 35 121t120 39h155v-527zM246 302v131h-46q-53 0 -53 -66q0 -65 53 -65h46z" />
    <glyph glyph-name="afii10071.ss01" horiz-adv-x="393" 
d="M360 233h-218q0 -100 16 -125q14 -21 41 -21q26 0 40 20q13 16 13 48h106q-3 -77 -45 -121q-39 -42 -114 -42q-72 0 -114 43q-30 31 -39.5 87t-9.5 142t9.5 142t39.5 87q41 42 113 42q71 0 113 -42q29 -29 39 -91t10 -169zM254 311q0 87 -15 109q-15 21 -41 21t-41 -21
q-15 -22 -15 -109h112zM339 646q0 -23 -16 -39t-39 -16q-22 0 -38.5 16.5t-16.5 38.5q0 23 16 39t39 16t39 -16t16 -39zM169 646q0 -23 -16 -39t-39 -16q-22 0 -38.5 16.5t-16.5 38.5q0 23 16 39t39 16t39 -16t16 -39z" />
    <glyph glyph-name="afii10103.ss01" horiz-adv-x="210" 
d="M158 0h-106v513h106v-513zM172 657q0 -28 -19.5 -47.5t-47.5 -19.5t-47.5 19.5t-19.5 47.5t19.5 47.5t47.5 19.5t47.5 -19.5t19.5 -47.5z" />
    <glyph glyph-name="afii10104.ss01" horiz-adv-x="210" 
d="M158 0h-106v513h106v-513zM246 646q0 -23 -16 -39t-39 -16t-39 16.5t-16 38.5q0 23 16 39t39 16t39 -16t16 -39zM76 646q0 -23 -16 -39t-39 -16t-39 16.5t-16 38.5q0 23 16 39t39 16t39 -16t16 -39z" />
    <glyph glyph-name="afii10105.ss01" horiz-adv-x="210" 
d="M158 -25q0 -86 -54 -127q-43 -33 -124 -33v95q37 0 54.5 16t17.5 55v532h106v-538zM172 657q0 -28 -19.5 -47.5t-47.5 -19.5t-47.5 19.5t-19.5 47.5t19.5 47.5t47.5 19.5t47.5 -19.5t19.5 -47.5z" />
    <glyph glyph-name="afii10106.ss01" horiz-adv-x="624" 
d="M597 169q0 -88 -36 -128.5t-121 -40.5h-159v433h-79q0 -145 -8 -229.5t-31 -130.5t-52.5 -59.5t-82.5 -13.5h-15v94h4q36 0 53 27t26 120t9 286h282v-189h53q85 0 121 -40.5t36 -128.5zM491 169q0 40 -13 57.5t-43 17.5h-48v-150h48q30 0 43 17.5t13 57.5z" />
    <glyph glyph-name="afii10109.ss01" horiz-adv-x="418" 
d="M398 0h-39q-40 0 -60.5 16t-36.5 58l-44 115q-13 35 -41 35h-20v-224h-105v527h105v-209h19q16 0 24.5 7t17.5 32l34 91q17 45 38 62t63 17h37v-94h-13q-15 0 -22.5 -6t-14.5 -24l-34 -88q-12 -33 -34 -45q25 -10 38 -45l38 -97q12 -34 40 -34h10v-94zM355 726l-88 -139
h-74l72 139h90z" />
    <glyph glyph-name="uni0496.ss01" horiz-adv-x="723" 
d="M63 0h-45v100h14q21 0 32.5 11.5t20.5 41.5l41 148q14 53 53 70q-33 14 -49 69l-36 119q-9 31 -20 42t-32 11h-14v100h44q48 0 74 -23t40 -73l37 -133q11 -39 24 -51.5t37 -12.5h21v293h112v-293h21q24 0 37 12.5t24 51.5l37 133q14 50 40 73t74 23h44v-100h-14
q-21 0 -32 -11t-20 -42l-36 -119q-16 -55 -49 -69q39 -17 53 -70l41 -148q8 -28 18.5 -39.5t28.5 -13.5h20v-243h-106v156q-37 19 -55 81l-45 161q-10 38 -23.5 50.5t-37.5 12.5h-20v-318h-112v318h-20q-24 0 -37.5 -12.5t-23.5 -50.5l-45 -161q-14 -50 -41 -72t-75 -22z
" />
    <glyph glyph-name="uni0497.ss01" horiz-adv-x="611" 
d="M60 0h-39v94h10q28 0 40 34l38 97q13 35 38 45q-22 12 -34 45l-34 88q-7 18 -14.5 24t-22.5 6h-13v94h37q42 0 63 -17t38 -62l34 -91q9 -25 17.5 -32t24.5 -7h10v209h105v-209h10q16 0 24.5 7t17.5 32l34 91q17 45 38 62t63 17h37v-94h-13q-15 0 -22.5 -6t-14.5 -24
l-34 -88q-12 -33 -34 -45q25 -10 38 -45l38 -97q12 -34 40 -34h10v-228h-96v147q-24 17 -40 61l-44 115q-13 35 -41 35h-11v-224h-105v224h-11q-28 0 -41 -35l-44 -115q-16 -42 -36.5 -58t-60.5 -16z" />
    <glyph glyph-name="uni049A.ss01" horiz-adv-x="488" 
d="M363 -143v156q-37 19 -55 81l-45 161q-10 38 -23.5 50.5t-37.5 12.5h-30v-318h-112v712h112v-293h31q24 0 37 12.5t24 51.5l37 133q14 50 40 73t74 23h44v-100h-14q-21 0 -32 -11t-20 -42l-36 -119q-16 -55 -49 -69q39 -17 53 -70l41 -148q9 -30 20.5 -41.5t32.5 -11.5
h14v-243h-106z" />
    <glyph glyph-name="uni049B.ss01" horiz-adv-x="418" 
d="M398 -134h-96v147q-24 17 -40 61l-44 115q-13 35 -41 35h-20v-224h-105v527h105v-209h19q16 0 24.5 7t17.5 32l34 91q17 45 38 62t63 17h37v-94h-13q-15 0 -22.5 -6t-14.5 -24l-34 -88q-12 -33 -34 -45q25 -10 38 -45l38 -97q13 -33 35 -34h15v-228z" />
    <glyph glyph-name="uni049C.ss01" horiz-adv-x="569" 
d="M206 214v104h-34v-318h-112v712h112v-293h34v104h78v-104q24 0 37 12.5t24 51.5l37 133q14 50 40 73t74 23h44v-100h-14q-21 0 -32 -11t-20 -42l-36 -119q-16 -55 -49 -69q39 -17 53 -70l41 -148q9 -30 20.5 -41.5t32.5 -11.5h14v-100h-45q-48 0 -75 22t-41 72l-45 161
q-10 37 -23 49.5t-37 13.5v-104h-78z" />
    </font>
</defs>
</svg>
